Download Now

http://i89.fastpic.ru/big/2018/0923/f4/a1616489df3470e10057c840f4d2c9f4.jpg
Classical Guitar Favorites
DVDRip | English | AVI + JPG Tabs | 640 x 464 | XviD ~593 kbps | 29.970 fps
MP3 80 Kbps 48.0 KHz | 1 channel | 02:07:55 | 624 MB
Genre: eLearning Video / Guitar lesson


The Classical Guitar Favorites DVD provides a visual guide for playing six classical guitar pieces. Includes tablature on-screen for every piece.
Includes tablature on-screen for every piece.Content:

Classical Guitar & Techniques Overview (7:34)
Bouree In E Minor (21:33)
Jesu, Joy Of Man's Desiring (19:32)
Leyenda (Excerpt) (23:07)
Malagueña (13:42)
Minuet In G (21:00)
Romance (Gomez) (21:27)


General
Complete name : 02 - Jesu, Joy Of Man's Desiring.avi
Format : AVI
Format/Info : Audio Video Interleave
File size : 95.2 MiB
Duration : 19 min 32 s
Overall bit rate : 681 kb/s
Writing application :
Writing library : VirtualDubMod build 2439/release

Video
ID : 0
Format : MPEG-4 Visual
Format profile : Advanced [email protected]
Format settings : BVOP4 / GMC3 / QPel
Format settings, BVOP : 4
Format settings, QPel : Yes
Format settings, GMC : 3 warppoints
Format settings, Matrix : Default (H.263)
Muxing mode : Packed bitstream
Codec ID : XVID
Codec ID/Hint : XviD
Duration : 19 min 32 s
Bit rate : 593 kb/s
Width : 640 pixels
Height : 464 pixels
Display aspect ratio : 1.379
Frame rate : 29.970 (30000/1001) FPS
Color space : YUV
Chroma subsampling : 4:2:0
Bit depth : 8 bits
Scan type : Progressive
Compression mode : Lossy
Bits/(Pixel*Frame) : 0.067
Stream size : 83.0 MiB (87%)
Writing library : XviD 1.2.1 (UTC 2008-12-04)

Audio
ID : 1
Format : MPEG Audio
Format version : Version 1
Format profile : Layer 3
Codec ID : 55
Codec ID/Hint : MP3
Duration : 19 min 32 s
Bit rate mode : Constant
Bit rate : 80.0 kb/s
Channel(s) : 1 channel
Sampling rate : 48.0 kHz
Compression mode : Lossy
Stream size : 11.2 MiB (12%)
Alignment : Split accross interleaves
Interleave, duration : 167 ms (5.00 video frames)
Interleave, preload duration : 500 ms


http://i91.fastpic.ru/big/2018/0923/18/f7545cd2da0d602406c2c8a6b9ef1218.jpg

Download link:


Links are Interchangeable - No Password - Single Extraction
Direct Download

Tags: Classical, Guitar, Favorites

Comments
Name:*
E-Mail:*
Add Comments:
Enter Code: *