Download Now


Zambezia (2012) 3D H-SBS 1080p (Ing-Lat)

TITULO ORIGINAL: Zambezia
ANO: 2012
DURACION: 83 min.
PAIS: Sudafrica
DIRECTOR: Wayne Thornley
GUION: Anthony Silverston
REPARTO: Animation
PRODUCTORA: Triggerfish Animation
GENERO: Animacion. Aventuras | Pajaros. 3-D
Sinopsis: Zambezia se centra en Aero, un joven halcon que viaja a la ciudad de las aves mas famosa: Zambezia. Su objetivo es ambicioso; espera convertirse alli en alguien importante. Sin embargo, pronto comprueba que puede llegar a ser mas dificil sobrevivir en una gran ciudad que en la naturaleza
http://www.imdb.com/title/tt1488181/
Trailer
https://youtu.be/WkSSeag0Oog



General
Format : Matroska
Format version : Version 2
File size : 7.87 GiB
Duration : 1h 22mn
Overall bit rate : 13.7 Mbps
Encoded date : UTC 2013-04-23 00:46:41
Writing application : mkvmerge v5.7.0 (The Whirlwind) built on Jul 8 2012 20:08:51
Writing library : libebml v1.2.3 + libmatroska v1.3.0
Video
ID : 1
Format : AVC
Format/Info : Advanced Video Codec
Format profile : [email protected]
Format settings, CABAC : Yes
Format settings, ReFrames : 2 frames
Codec ID : V_MPEG4/ISO/AVC
Duration : 1h 22mn
Bit rate : 10.9 Mbps
Width : 1 920 pixels
Height : 1 080 pixels
Display aspect ratio : 16:9
Frame rate mode : Constant
Frame rate : 23.976 fps
Color space : YUV
Chroma subsampling : 4:2:0
Bit depth : 8 bits
Scan type : Progressive
Bits/(Pixel*Frame) : 0.219
Stream size : 6.26 GiB (79%)
Writing library : x264 core
Language : English
Default : Yes
Forced : No
Color primaries : BT.709
Transfer characteristics : BT.709
Matrix coefficients : BT.709
Audio #1
ID : 2
Format : AC-3
Format/Info : Audio Coding 3
Mode extension : CM (complete main)
Format settings, Endianness : Big
Codec ID : A_AC3
Duration : 1h 22mn
Bit rate mode : Constant
Bit rate : 384 Kbps
Channel(s) : 6 channels
Channel positions : Front: L C R, Side: L R, LFE
Sampling rate : 48.0 KHz
Bit depth : 16 bits
Compression mode : Lossy
Stream size : 226 MiB (3%)
Title : AC3 5.1
Language : Spanish
Default : Yes
Forced : No
Audio #2
ID : 3
Format : AC-3
Format/Info : Audio Coding 3
Mode extension : CM (complete main)
Format settings, Endianness : Big
Codec ID : A_AC3
Duration : 1h 22mn
Bit rate mode : Constant
Bit rate : 640 Kbps
Channel(s) : 6 channels
Channel positions : Front: L C R, Side: L R, LFE
Sampling rate : 48.0 KHz
Bit depth : 16 bits
Compression mode : Lossy
Stream size : 377 MiB (5%)
Title : AC3 5.1
Language : English
Default : No
Forced : No
Audio #3
ID : 4
Format : DTS
Format/Info : Digital Theater Systems
Mode : 16
Format settings, Endianness : Big
Codec ID : A_DTS
Duration : 1h 22mn
Bit rate mode : Constant
Bit rate : 1 509 Kbps
Channel(s) : 6 channels
Channel positions : Front: L C R, Side: L R, LFE
Sampling rate : 48.0 KHz
Bit depth : 24 bits
Compression mode : Lossy
Delay relative to video : 11ms
Stream size : 890 MiB (11%)
Title : DTS 5.1
Language : English
Default : No
Forced : No
Text
ID : 5
Format : UTF-8
Codec ID : S_TEXT/UTF8
Codec ID/Info : UTF-8 Plain Text
Language : Spanish
Default : No
Forced : No


Zambezia (2012) 3D H-SBS 1080p (Ing-Lat)
Zambezia (2012) 3D H-SBS 1080p (Ing-Lat)
Zambezia (2012) 3D H-SBS 1080p (Ing-Lat)

Zambezia (2012) 3D H-SBS 1080p (Ing-Lat)
Buy Premium Account To Get High Speed Download
http://lupaste.com/?v=23254
Direct Download

Tags: Zambezia

Comments
Name:*
E-Mail:*
Add Comments:
Enter Code: *