Download Now


http://s2.1pic.org/files/2016/09/02/21e02b8d8ae1aec4a466.jpg
Channel 4 - My Millionaire Dads and Me (2016)
HDTV 720p | MKV | 1280x720 | [email protected] Kbps | English [email protected] Kbps | 2 channels | 46mn 47s | 814 MiB
HDTV 1080p | MKV | 1920x1080 | [email protected] Kbps | English [email protected] Kbps | 2 channels | 46mn 47s | 1.58 GiB
Genre: Documentary

The first British gay dads to have surrogate kids celebrate their twins' 16th birthday

MediaInfo 720p



General
Unique ID : 0 (0x0)
Complete name : My.Millionaire.Dads.And.Me.2016.720p.mkv
Format : Matroska
Format version : Version 2
File size : 814 MiB
Duration : 46mn 47s
Overall bit rate : 2 432 Kbps

Video
ID : 1
Format : AVC
Format/Info : Advanced Video Codec
Format profile : [email protected]
Format settings, CABAC : Yes
Format settings, ReFrames : 5 frames
Codec ID : V_MPEG4/ISO/AVC
Duration : 46mn 47s
Bit rate : 1 999 Kbps
Width : 1 280 pixels
Height : 720 pixels
Display aspect ratio : 16:9
Frame rate mode : Constant
Frame rate : 25.000 fps
Color space : YUV
Chroma subsampling : 4:2:0
Bit depth : 8 bits
Scan type : Progressive
Bits/(Pixel*Frame) : 0.087
Stream size : 669 MiB (82%)
Writing library : x264 core 148 r2705 3f5ed56
Encoding settings : opencl=1 / cabac=1 / ref=5 / deblock=1:0:0 / analyse=0x3:0x113 / me=umh / subme=8 / psy=1 / psy_rd=1.00:0.00 / mixed_ref=1 / me_range=16 / chroma_me=1 / trellis=1 / 8x8dct=1 / cqm=0 / deadzone=21,11 / fast_pskip=1 / chroma_qp_offset=-2 / threads=12 / lookahead_threads=2 / sliced_threads=0 / nr=0 / decimate=1 / interlaced=0 / bluray_compat=0 / constrained_intra=0 / bframes=3 / b_pyramid=2 / b_adapt=2 / b_bias=0 / direct=3 / weightb=1 / open_gop=0 / weightp=2 / keyint=250 / keyint_min=25 / scenecut=40 / intra_refresh=0 / rc_lookahead=50 / rc=crf / mbtree=1 / crf=21.0 / qcomp=0.60 / qpmin=0 / qpmax=69 / qpstep=4 / ip_ratio=1.40 / aq=1:1.00
Default : Yes
Forced : No
Color range : Limited
Matrix coefficients : BT.709

Audio
ID : 2
Format : AC-3
Format/Info : Audio Coding 3
Mode extension : CM (complete main)
Format settings, Endianness : Big
Codec ID : A_AC3
Duration : 46mn 47s
Bit rate mode : Constant
Bit rate : 384 Kbps
Channel(s) : 2 channels
Channel positions : Front: L R
Sampling rate : 48.0 KHz
Compression mode : Lossy
Stream size : 129 MiB (16%)
Language : English
Default : Yes
Forced : No


MediaInfo 1080p



General
Unique ID : 0 (0x0)
Complete name : My.Millionaire.Dads.And.Me.2016.1080p.mkv
Format : Matroska
Format version : Version 4 / Version 2
File size : 1.58 GiB
Duration : 46mn 47s
Overall bit rate : 4 843 Kbps

Video
ID : 1
Format : AVC
Format/Info : Advanced Video Codec
Format profile : [email protected]
Format settings, CABAC : Yes
Format settings, ReFrames : 4 frames
Codec ID : V_MPEG4/ISO/AVC
Duration : 46mn 47s
Bit rate : 4 363 Kbps
Width : 1 920 pixels
Height : 1 080 pixels
Display aspect ratio : 16:9
Frame rate mode : Constant
Frame rate : 25.000 fps
Standard : Component
Color space : YUV
Chroma subsampling : 4:2:0
Bit depth : 8 bits
Scan type : MBAFF
Scan order : Top Field First
Bits/(Pixel*Frame) : 0.084
Stream size : 1.43 GiB (90%)
Default : Yes
Forced : No
Color range : Limited
Color primaries : BT.709
Transfer characteristics : BT.709
Matrix coefficients : BT.709

Audio
ID : 2
Format : AC-3
Format/Info : Audio Coding 3
Mode extension : CM (complete main)
Format settings, Endianness : Big
Codec ID : A_AC3
Duration : 46mn 47s
Bit rate mode : Constant
Bit rate : 384 Kbps
Channel(s) : 2 channels
Channel positions : Front: L R
Sampling rate : 48.0 KHz
Compression mode : Lossy
Stream size : 129 MiB (8%)
Default : Yes
Forced : No


Screenshots 720p:

http://s2.1pic.org/files/2016/09/02/a40be67a491cab2f2181.jpg

Download link:

ausfile_com:
https://ausfile.com/5ig38cefln39/sha7g.My.Millionaire.Dads.And.Me.2016.1080p.part1.rar.html
https://ausfile.com/6iwzdvmdj7kb/sha7g.My.Millionaire.Dads.And.Me.2016.1080p.part2.rar.html
https://ausfile.com/rzeqedicp192/sha7g.My.Millionaire.Dads.And.Me.2016.1080p.part3.rar.html
https://ausfile.com/q2t5o2h70q1z/sha7g.My.Millionaire.Dads.And.Me.2016.1080p.part4.rar.html
https://ausfile.com/e1hjp4zbt50e/sha7g.My.Millionaire.Dads.And.Me.2016.1080p.part5.rar.html
https://ausfile.com/hownap3xk6cp/sha7g.My.Millionaire.Dads.And.Me.2016.720p.part1.rar.html
https://ausfile.com/bgpsco4p99zx/sha7g.My.Millionaire.Dads.And.Me.2016.720p.part2.rar.html
https://ausfile.com/w89titfmt04e/sha7g.My.Millionaire.Dads.And.Me.2016.720p.part3.rar.html

rapidgator_net:
http://rapidgator.net/file/7e2d5fffa496d905b4adf020eeab9f24/sha7g.My.Millionaire.Dads.And.Me.2016.1080p.part1.rar.html
http://rapidgator.net/file/d63fc9d3280c8314f9565816c30b8e7b/sha7g.My.Millionaire.Dads.And.Me.2016.1080p.part2.rar.html
http://rapidgator.net/file/e071e2433533d20d6bc264084679ad4a/sha7g.My.Millionaire.Dads.And.Me.2016.1080p.part3.rar.html
http://rapidgator.net/file/9d388148e46843070897b4ddb6e18547/sha7g.My.Millionaire.Dads.And.Me.2016.1080p.part4.rar.html
http://rapidgator.net/file/2921005de0b19fb08ed6d5496e54606c/sha7g.My.Millionaire.Dads.And.Me.2016.1080p.part5.rar.html
http://rapidgator.net/file/7d718f856cb92616951f783c49b6f1ea/sha7g.My.Millionaire.Dads.And.Me.2016.720p.part1.rar.html
http://rapidgator.net/file/debea94a8075e45bad85dce362f7a2fe/sha7g.My.Millionaire.Dads.And.Me.2016.720p.part2.rar.html
http://rapidgator.net/file/b801cfa556f15d2794a539bb7210277e/sha7g.My.Millionaire.Dads.And.Me.2016.720p.part3.rar.html

bytewhale_com:
https://bytewhale.com/tzucpr8oiclt/sha7g.My.Millionaire.Dads.And.Me.2016.1080p.part1.rar
https://bytewhale.com/xf63ltw65c8q/sha7g.My.Millionaire.Dads.And.Me.2016.1080p.part2.rar
https://bytewhale.com/vbwd1an7jt2l/sha7g.My.Millionaire.Dads.And.Me.2016.1080p.part3.rar
https://bytewhale.com/mryox7sr7cqg/sha7g.My.Millionaire.Dads.And.Me.2016.1080p.part4.rar
https://bytewhale.com/3t3ui7jrv3kc/sha7g.My.Millionaire.Dads.And.Me.2016.1080p.part5.rar
https://bytewhale.com/1j277mvugooj/sha7g.My.Millionaire.Dads.And.Me.2016.720p.part1.rar
https://bytewhale.com/sn4z3pi7x6oy/sha7g.My.Millionaire.Dads.And.Me.2016.720p.part2.rar
https://bytewhale.com/1ccrufz2gc94/sha7g.My.Millionaire.Dads.And.Me.2016.720p.part3.rar

Links are Interchangeable - No Password - Single Extraction
Direct Download

Tags: Channel, Millionaire

Comments
Name:*
E-Mail:*
Add Comments:
Enter Code: *