Download Now

http://s2.1pic.org/files/2016/09/02/32190ff2fb720d3db79d.jpg

BBC - Smack in Suburbia: Americas Heroin Crisis (2016)
HDTV | 1280 x 720 | .MP4/AVC @ 3600 Kbps | 31mn 16s | 842 MB
Audio: English AAC 160 Kbps, 2 channels | Subs: English
Genre: Documentary

With the United States in the midst of a heroin and opiate epidemic, India Rakusen travels to the state of Ohio, where addiction has become part of everyday life.

West of Cleveland, Avon Lake is a wealthy suburb - large, expensive properties with white picket fences back onto the shores of Lake Eerie. But behind this fa ade, there is a crisis. Young people are dying from overdoses at an alarming rate. Many families have felt the damaging impact of addiction; and across Lorain County, opiates - pharmaceutical and street heroin - have killed twice as many people in the first six months of 2016 as died in the whole of 2015.

MediaInfo


General
Complete name : Smack.in.Suburbia.Americas.Heroin.Crisis.mp4
Format : MPEG-4
Format profile : Base Media
Codec ID : isom
File size : 842 MiB
Duration : 31mn 16s
Overall bit rate mode : Variable
Overall bit rate : 3 764 Kbps
Encoded date : UTC 2016-08-31 13:50:18
Tagged date : UTC 2016-08-31 13:50:18
Writing application : My MP4Box GUI 0.6.0.6

Video
ID : 1
Format : AVC
Format/Info : Advanced Video Codec
Format profile : [email protected]
Format settings, CABAC : Yes
Format settings, ReFrames : 4 frames
Codec ID : avc1
Codec ID/Info : Advanced Video Coding
Duration : 31mn 16s
Bit rate : 3 600 Kbps
Maximum bit rate : 11.3 Mbps
Width : 1 280 pixels
Height : 720 pixels
Display aspect ratio : 16:9
Frame rate mode : Variable
Frame rate : 25.000 fps
Minimum frame rate : 8.333 fps
Maximum frame rate : 25.000 fps
Color space : YUV
Chroma subsampling : 4:2:0
Bit depth : 8 bits
Scan type : Progressive
Bits/(Pixel*Frame) : 0.156
Stream size : 805 MiB (96%)
Title : BBC.Smack.in.Suburbia.Americas.Heroin.Crisis.720p.x264.AAC.MVGroup.org.mp4
Writing library : x264 core 142 r2479 dd79a61
Encoding settings : cabac=1 / ref=1 / deblock=1:0:0 / analyse=0x3:0x3 / me=dia / subme=1 / psy=1 / psy_rd=1.00:0.00 / mixed_ref=0 / me_range=16 / chroma_me=1 / trellis=0 / 8x8dct=1 / cqm=0 / deadzone=21,11 / fast_pskip=1 / chroma_qp_offset=0 / threads=3 / lookahead_threads=1 / sliced_threads=0 / nr=0 / decimate=1 / interlaced=0 / bluray_compat=0 / constrained_intra=0 / bframes=3 / b_pyramid=2 / b_adapt=1 / b_bias=0 / direct=1 / weightb=1 / open_gop=0 / weightp=1 / keyint=250 / keyint_min=25 / scenecut=40 / intra_refresh=0 / rc_lookahead=0 / rc=crf / mbtree=0 / crf=21.0 / qcomp=0.60 / qpmin=0 / qpmax=69 / qpstep=4 / vbv_maxrate=62500 / vbv_bufsize=78125 / crf_max=0.0 / nal_hrd=none / filler=0 / ip_ratio=1.40 / pb_ratio=1.30 / aq=1:1.00
Encoded date : UTC 2016-08-30 22:43:28
Tagged date : UTC 2016-08-31 13:51:07
Color primaries : BT.709-5, BT.1361, IEC 61966-2-4, SMPTE RP177
Transfer characteristics : BT.709-5, BT.1361
Matrix coefficients : BT.709-5, BT.1361, IEC 61966-2-4 709, SMPTE RP177

Audio
ID : 2
Format : AAC
Format/Info : Advanced Audio Codec
Format profile : LC
Codec ID : 40
Duration : 31mn 16s
Bit rate mode : Variable
Bit rate : 160 Kbps
Maximum bit rate : 189 Kbps
Channel(s) : 2 channels
Channel positions : Front: L R
Sampling rate : 48.0 KHz
Compression mode : Lossy
Stream size : 35.8 MiB (4%)
Title : BBC.Smack.in.Suburbia.Americas.Heroin.Crisis.720p.x264.AAC.MVGroup.org.mp4
Encoded date : UTC 2016-08-31 13:50:59
Tagged date : UTC 2016-08-31 13:51:07

Text
ID : 3
Format : Timed text
Codec ID : tx3g
Duration : 30mn 56s
Bit rate mode : Variable
Bit rate : 111 bps
Stream size : 25.1 KiB (0%)
Title : BBC.Smack.in.Suburbia.Americas.Heroin.Crisis.720p.x264.AAC.MVGroup.org.srt
Encoded date : UTC 2016-08-31 13:51:07
Tagged date : UTC 2016-08-31 13:51:07

Screenshots

http://s2.1pic.org/files/2016/09/02/51cdf12d4f668ee9d444.jpg

Download link:

ausfile_com:
https://ausfile.com/q21ey6rnbu08/zwcj4.BBC..Smack.in.Suburbia.Americas.Heroin.Crisis.2016.part1.rar.html
https://ausfile.com/076ypviv1j5j/zwcj4.BBC..Smack.in.Suburbia.Americas.Heroin.Crisis.2016.part2.rar.html
https://ausfile.com/gfqq8wpyqbok/zwcj4.BBC..Smack.in.Suburbia.Americas.Heroin.Crisis.2016.part3.rar.html
https://ausfile.com/oxksfw8l5n1p/zwcj4.BBC..Smack.in.Suburbia.Americas.Heroin.Crisis.2016.part4.rar.html
https://ausfile.com/0jw034iocrvi/zwcj4.BBC..Smack.in.Suburbia.Americas.Heroin.Crisis.2016.part5.rar.html

rapidgator_net:
http://rapidgator.net/file/9022b917a47eba7c7259e2906ff1e640/zwcj4.BBC..Smack.in.Suburbia.Americas.Heroin.Crisis.2016.part1.rar.html
http://rapidgator.net/file/bd56821bafe4cc891cc8f58fb6855e35/zwcj4.BBC..Smack.in.Suburbia.Americas.Heroin.Crisis.2016.part2.rar.html
http://rapidgator.net/file/38148433c3e6dd38a8b77060bd9e2e3c/zwcj4.BBC..Smack.in.Suburbia.Americas.Heroin.Crisis.2016.part3.rar.html
http://rapidgator.net/file/00851530aa95f53346fadc281dfeef18/zwcj4.BBC..Smack.in.Suburbia.Americas.Heroin.Crisis.2016.part4.rar.html
http://rapidgator.net/file/09298f784739d5731bd6573e98c492e2/zwcj4.BBC..Smack.in.Suburbia.Americas.Heroin.Crisis.2016.part5.rar.html

bytewhale_com:
https://bytewhale.com/u5jvldc5oje6/zwcj4.BBC..Smack.in.Suburbia.Americas.Heroin.Crisis.2016.part1.rar
https://bytewhale.com/nheypv179pc1/zwcj4.BBC..Smack.in.Suburbia.Americas.Heroin.Crisis.2016.part2.rar
https://bytewhale.com/j36hntfvcz97/zwcj4.BBC..Smack.in.Suburbia.Americas.Heroin.Crisis.2016.part3.rar
https://bytewhale.com/x7z07x4fw0qz/zwcj4.BBC..Smack.in.Suburbia.Americas.Heroin.Crisis.2016.part4.rar
https://bytewhale.com/4nesza6tmics/zwcj4.BBC..Smack.in.Suburbia.Americas.Heroin.Crisis.2016.part5.rar

Links are Interchangeable - No Password - Single Extraction
Direct Download

Tags: Suburbia, Americas, Heroin, Crisis

Comments
Name:*
E-Mail:*
Add Comments:
Enter Code: *