Download Now


Baraka (1992)
Baraka (1992)
BluRay 720p | MP4 | 1280x588 | [email protected] Kbps | English [email protected] Kbps | 2 channels | 1h 37mn | 1.18 GiB
BluRay 1080p | MP4 | 1920x880 | [email protected] Kbps | English [email protected] Kbps | 2 channels | 1h 37mn | 1.87 GiB
Genre: Documentary

Without words, cameras show us the world, with an emphasis not on "where," but on "what's there." It begins with morning, natural landscapes and people at prayer: volcanoes, water falls, veldts, and forests; several hundred monks do a monkey chant. Indigenous peoples apply body paint; whole villages dance. The film moves to destruction of nature via logging, blasting, and strip mining. Images of poverty, rapid urban life, and factories give way to war, concentration camps, and mass graves. Ancient ruins come into view, and then a sacred river where pilgrims bathe and funeral pyres burn. Prayer and nature return. A monk rings a huge bell; stars wheel across the sky.

http://www.imdb.com/title/tt0103767/][b


MediaInfo 720p



General
Complete name : Baraka.1992.720p.mp4
Format : MPEG-4
Format profile : Base Media
Codec ID : isom
File size : 1.18 GiB
Duration : 1h 37mn
Overall bit rate : 1 732 Kbps

Video
ID : 1
Format : AVC
Format/Info : Advanced Video Codec
Format profile : [email protected]
Format settings, CABAC : Yes
Format settings, ReFrames : 4 frames
Codec ID : avc1
Codec ID/Info : Advanced Video Coding
Duration : 1h 37mn
Bit rate : 1 500 Kbps
Width : 1 280 pixels
Height : 588 pixels
Display aspect ratio : 2.2:1
Frame rate mode : Constant
Frame rate : 23.976 fps
Color space : YUV
Chroma subsampling : 4:2:0
Bit depth : 8 bits
Scan type : Progressive
Bits/(Pixel*Frame) : 0.083
Stream size : 1.03 GiB (87%)
Writing library : x264 core 148 r2638M 7599210
Encoding settings : cabac=1 / ref=4 / deblock=1:-1:-1 / analyse=0x3:0x113 / me=umh / subme=9 / psy=1 / psy_rd=1.00:0.15 / mixed_ref=1 / me_range=24 / chroma_me=1 / trellis=2 / 8x8dct=1 / cqm=0 / deadzone=21,11 / fast_pskip=1 / chroma_qp_offset=-3 / threads=32 / lookahead_threads=4 / sliced_threads=0 / nr=0 / decimate=1 / interlaced=0 / bluray_compat=0 / constrained_intra=0 / bframes=3 / b_pyramid=2 / b_adapt=2 / b_bias=0 / direct=3 / weightb=1 / open_gop=0 / weightp=2 / keyint=250 / keyint_min=25 / scenecut=40 / intra_refresh=0 / rc_lookahead=50 / rc=2pass / mbtree=1 / bitrate=1500 / ratetol=1.0 / qcomp=0.60 / qpmin=0 / qpmax=69 / qpstep=4 / cplxblur=20.0 / qblur=0.5 / vbv_maxrate=31250 / vbv_bufsize=31250 / nal_hrd=none / filler=0 / ip_ratio=1.40 / aq=3:1.00
Encoded date : UTC 2016-04-30 19:01:19
Tagged date : UTC 2016-04-30 19:01:19

Audio
ID : 2
Format : AAC
Format/Info : Advanced Audio Codec
Format profile : LC
Codec ID : 40
Duration : 1h 37mn
Bit rate mode : Constant
Bit rate : 224 Kbps
Channel(s) : 2 channels
Channel(s)_Original : 6 channels
Channel positions : Front: L C R, Side: L R, LFE
Sampling rate : 48.0 KHz
Compression mode : Lossy
Stream size : 157 MiB (13%)
Language : English
Encoded date : UTC 2016-04-30 19:01:19
Tagged date : UTC 2016-04-30 19:01:19


MediaInfo 1080p



General
Complete name : Baraka.1992.1080p.mp4
Format : MPEG-4
Format profile : Base Media
Codec ID : isom
File size : 1.87 GiB
Duration : 1h 37mn
Overall bit rate : 2 732 Kbps

Video
ID : 1
Format : AVC
Format/Info : Advanced Video Codec
Format profile : [email protected]
Format settings, CABAC : Yes
Format settings, ReFrames : 4 frames
Codec ID : avc1
Codec ID/Info : Advanced Video Coding
Duration : 1h 37mn
Bit rate : 2 500 Kbps
Width : 1 920 pixels
Height : 880 pixels
Display aspect ratio : 2.2:1
Frame rate mode : Constant
Frame rate : 23.976 fps
Color space : YUV
Chroma subsampling : 4:2:0
Bit depth : 8 bits
Scan type : Progressive
Bits/(Pixel*Frame) : 0.062
Stream size : 1.71 GiB (92%)
Writing library : x264 core 148 r2638M 7599210
Encoding settings : cabac=1 / ref=4 / deblock=1:-1:-1 / analyse=0x3:0x113 / me=umh / subme=9 / psy=1 / psy_rd=1.00:0.15 / mixed_ref=1 / me_range=24 / chroma_me=1 / trellis=2 / 8x8dct=1 / cqm=0 / deadzone=21,11 / fast_pskip=1 / chroma_qp_offset=-3 / threads=32 / lookahead_threads=4 / sliced_threads=0 / nr=0 / decimate=1 / interlaced=0 / bluray_compat=0 / constrained_intra=0 / bframes=3 / b_pyramid=2 / b_adapt=2 / b_bias=0 / direct=3 / weightb=1 / open_gop=0 / weightp=2 / keyint=250 / keyint_min=25 / scenecut=40 / intra_refresh=0 / rc_lookahead=50 / rc=2pass / mbtree=1 / bitrate=2500 / ratetol=1.0 / qcomp=0.60 / qpmin=0 / qpmax=69 / qpstep=4 / cplxblur=20.0 / qblur=0.5 / vbv_maxrate=31250 / vbv_bufsize=31250 / nal_hrd=none / filler=0 / ip_ratio=1.40 / aq=3:1.00
Encoded date : UTC 2016-05-01 11:09:34
Tagged date : UTC 2016-05-01 11:09:34

Audio
ID : 2
Format : AAC
Format/Info : Advanced Audio Codec
Format profile : LC
Codec ID : 40
Duration : 1h 37mn
Bit rate mode : Constant
Bit rate : 224 Kbps
Channel(s) : 2 channels
Channel(s)_Original : 6 channels
Channel positions : Front: L C R, Side: L R, LFE
Sampling rate : 48.0 KHz
Compression mode : Lossy
Stream size : 157 MiB (8%)
Language : English
Encoded date : UTC 2016-05-01 11:09:34
Tagged date : UTC 2016-05-01 11:09:34


Screenshots 720p:

Baraka (1992)
Baraka (1992)
Baraka (1992)
Baraka (1992)

Screenshots 1080p:

Baraka (1992)
Baraka (1992)
Baraka (1992)
Baraka (1992)


Buy Premium Account To Get Resumable Support & Max Speed

DOWNLOAD LINK


Links are Interchangeable - Single Extraction - Premium is support resumable
Direct Download

Tags: Baraka

Comments
Name:*
E-Mail:*
Add Comments:
Enter Code: *