Download Now


HBO - Secrets of the Tribe (2010)
HBO - Secrets of the Tribe (2010)
HDTV | 1280x720 | .MKV/AVC @ 2288 Kbps | 1h 37mn | 1.83 GiB
Audio: English AC3 384 kbps, 2 channels | Subs: English
Genre: Documentary

The field of anthropology goes under the magnifying glass in this fiery investigation of the seminal research on Yanomamo Indians. In the 1960s and '70s, a steady stream of anthropologists filed into the Amazon Basin to observe this "virgin" society untouched by modern life. Thirty years later, the events surrounding this infiltration have become a scandalous tale of academic ethics and infighting. The origins of violence and war and the accuracy of data gathering are hotly debated among the scholarly clan. Soon these disputes take on Heart of Darkness overtones as they descend into shadowy allegations of sexual and medical violation.


HBO - Secrets of the Tribe (2010)
HBO - Secrets of the Tribe (2010)
HDTV | 1280x720 | .MKV/AVC @ 2288 Kbps | 1h 37mn | 1.83 GiB
Audio: English AC3 384 kbps, 2 channels | Subs: English
Genre: Documentary

The field of anthropology goes under the magnifying glass in this fiery investigation of the seminal research on Yanomamo Indians. In the 1960s and '70s, a steady stream of anthropologists filed into the Amazon Basin to observe this "virgin" society untouched by modern life. Thirty years later, the events surrounding this infiltration have become a scandalous tale of academic ethics and infighting. The origins of violence and war and the accuracy of data gathering are hotly debated among the scholarly clan. Soon these disputes take on Heart of Darkness overtones as they descend into shadowy allegations of sexual and medical violation. Director Jose Padilha brilliantly employs two provocative strategies to raise unsettling questions about the boundaries of cultural encounters. He allows professors accused of heinous activities to defend themselves, and the Yanomami to represent their side of the story. As this riveting excavation deconstructs anthropology's colonial legacy, it challenges our society's myths of objectivity and the very notion of "the other." The film blends interviews with Ph.D.s, excerpts from 1960s and 1970s documentaries and never-before-seen footage from the Smithsonian. The controversy over the anthropologists' impact on the tribe - which had lived for centuries in virtual seclusion on the Brazil-Venezuela border - touches some of the field's brightest stars; Yanomami authority Napoleon Chagnon, whose book "Yanomamo: The Fierce People" is the bestselling anthropology text of all time, Kenneth Good and prominent French anthropologist Jacques Lizot.

MediaInfo



General
Unique ID : 189126912028253823855254320244243958412 (0x8E4884B0636193628D24BDCE69B60A8C)
Complete name : HBO.Secrets.of.the.Tribe.mkv
Format : Matroska
Format version : Version 4 / Version 2
File size : 1.83 GiB
Duration : 1h 37mn
Overall bit rate : 2 674 Kbps

Video
ID : 1
Format : AVC
Format/Info : Advanced Video Codec
Format profile : [email protected]
Format settings, CABAC : Yes
Format settings, ReFrames : 4 frames
Codec ID : V_MPEG4/ISO/AVC
Duration : 1h 37mn
Bit rate : 2 288 Kbps
Width : 1 280 pixels
Height : 720 pixels
Display aspect ratio : 16:9
Frame rate mode : Constant
Frame rate : 29.970 fps
Color space : YUV
Chroma subsampling : 4:2:0
Bit depth : 8 bits
Scan type : Progressive
Bits/(Pixel*Frame) : 0.083
Stream size : 1.53 GiB (84%)
Writing library : x264 core 146 r2538 121396c
Encoding settings : cabac=1 / ref=3 / deblock=1:0:0 / analyse=0x3:0x133 / me=hex / subme=7 / psy=1 / psy_rd=1.00:0.00 / mixed_ref=1 / me_range=16 / chroma_me=1 / trellis=1 / 8x8dct=1 / cqm=0 / deadzone=21,11 / fast_pskip=1 / chroma_qp_offset=-2 / threads=12 / lookahead_threads=2 / sliced_threads=0 / nr=0 / decimate=1 / interlaced=0 / bluray_compat=0 / constrained_intra=0 / bframes=3 / b_pyramid=2 / b_adapt=1 / b_bias=0 / direct=1 / weightb=1 / open_gop=0 / weightp=2 / keyint=250 / keyint_min=25 / scenecut=40 / intra_refresh=0 / rc_lookahead=40 / rc=2pass / mbtree=1 / bitrate=2288 / ratetol=1.0 / qcomp=0.60 / qpmin=10 / qpmax=51 / qpstep=4 / cplxblur=20.0 / qblur=0.5 / ip_ratio=1.40 / aq=1:1.00
Default : Yes
Forced : No
DURATION : 01:37:44.298000000
NUMBER_OF_FRAMES : 175753
NUMBER_OF_BYTES : 1677379136
_STATISTICS_WRITING_APP : mkvmerge v9.1.0 ('Little Earthquakes') 64bit
_STATISTICS_WRITING_DATE_UTC : 2016-04-29 13:02:57
_STATISTICS_TAGS : BPS DURATION NUMBER_OF_FRAMES NUMBER_OF_BYTES

Audio
ID : 2
Format : AC-3
Format/Info : Audio Coding 3
Mode extension : CM (complete main)
Format settings, Endianness : Big
Codec ID : A_AC3
Duration : 1h 37mn
Bit rate mode : Constant
Bit rate : 384 Kbps
Channel(s) : 2 channels
Channel positions : Front: L R
Sampling rate : 48.0 KHz
Compression mode : Lossy
Delay relative to video : 96ms
Stream size : 268 MiB (14%)
Language : English
Default : Yes
Forced : No
DURATION : 01:37:44.160000000
NUMBER_OF_FRAMES : 183255
NUMBER_OF_BYTES : 281479680
_STATISTICS_WRITING_APP : mkvmerge v9.1.0 ('Little Earthquakes') 64bit
_STATISTICS_WRITING_DATE_UTC : 2016-04-29 13:02:57
_STATISTICS_TAGS : BPS DURATION NUMBER_OF_FRAMES NUMBER_OF_BYTES

Text
ID : 3
Format : UTF-8
Codec ID : S_TEXT/UTF8
Codec ID/Info : UTF-8 Plain Text
Default : Yes
Forced : No



Screenshots:

HBO - Secrets of the Tribe (2010)
HBO - Secrets of the Tribe (2010)
HBO - Secrets of the Tribe (2010)
HBO - Secrets of the Tribe (2010)


Buy Premium Account To Get Resumable Support & Max Speed

DOWNLOAD LINK


Links are Interchangeable - Single Extraction - Premium is support resumable
Direct Download

Tags: Secrets

Comments
Name:*
E-Mail:*
Add Comments:
Enter Code: *