Download Now


Neurons to Nirvana: Understanding Psychedelic Medicines (2013)
Neurons to Nirvana: Understanding Psychedelic Medicines (2013)
HDTV | 1280x720 | .MKV/AVC @ 2320 Kbps | 1h 9mn | 1.33 GiB
Audio: English AC3 384 kbps, 6 channels | Subs: None
Genre: Documentary

Through interviews with leading psychologists and scientists, Neurons to Nirvana explores the history of four powerful psychedelic substances (LSD, Psilocybin, MDMA and Ayahuasca) and their previously established medicinal potential. Strictly focusing on the science and medicinal properties of these drugs, Neurons to Nirvana looks into why our society has created such a social and political bias against even allowing research to continue the exploration of any possible positive effects they can present in treating some of today's most challenging afflictions.

MediaInfo



General
Unique ID : 170685298343158986132184212667395674160 (0x8068CAEF57AA87A390E76E84650F1030)
Complete name : Neurons.to.Nirvana.Understanding.Psychedelic.Medicines.mkv
Format : Matroska
Format version : Version 4 / Version 2
File size : 1.33 GiB
Duration : 1h 9mn
Overall bit rate : 2 759 Kbps

Video
ID : 1
Format : AVC
Format/Info : Advanced Video Codec
Format profile : [email protected]
Format settings, CABAC : Yes
Format settings, ReFrames : 5 frames
Codec ID : V_MPEG4/ISO/AVC
Duration : 1h 9mn
Bit rate : 2 320 Kbps
Width : 1 280 pixels
Height : 720 pixels
Display aspect ratio : 16:9
Frame rate mode : Constant
Frame rate : 29.970 fps
Color space : YUV
Chroma subsampling : 4:2:0
Bit depth : 8 bits
Scan type : Progressive
Bits/(Pixel*Frame) : 0.084
Stream size : 1.12 GiB (84%)
Writing library : x264 core 138 r2358 9e941d1
Encoding settings : cabac=1 / ref=5 / deblock=1:-1:-1 / analyse=0x3:0x133 / me=esa / subme=7 / psy=1 / psy_rd=1.00:0.00 / mixed_ref=1 / me_range=24 / chroma_me=1 / trellis=2 / 8x8dct=1 / cqm=0 / deadzone=21,11 / fast_pskip=0 / chroma_qp_offset=-2 / threads=6 / lookahead_threads=1 / sliced_threads=0 / nr=0 / decimate=1 / interlaced=0 / bluray_compat=0 / constrained_intra=0 / bframes=5 / b_pyramid=0 / b_adapt=2 / b_bias=0 / direct=3 / weightb=1 / open_gop=0 / weightp=2 / keyint=300 / keyint_min=29 / scenecut=40 / intra_refresh=0 / rc_lookahead=60 / rc=crf / mbtree=1 / crf=20.0 / qcomp=0.60 / qpmin=10 / qpmax=51 / qpstep=4 / vbv_maxrate=62500 / vbv_bufsize=78125 / crf_max=0.0 / nal_hrd=none / ip_ratio=1.40 / aq=1:1.05
Language : English
Default : Yes
Forced : No

Audio
ID : 2
Format : AC-3
Format/Info : Audio Coding 3
Mode extension : CM (complete main)
Format settings, Endianness : Big
Codec ID : A_AC3
Duration : 1h 9mn
Bit rate mode : Constant
Bit rate : 384 Kbps
Channel(s) : 6 channels
Channel positions : Front: L C R, Side: L R, LFE
Sampling rate : 48.0 KHz
Compression mode : Lossy
Stream size : 190 MiB (14%)
Default : Yes
Forced : No


Screenshots:

Neurons to Nirvana: Understanding Psychedelic Medicines (2013)


Neurons to Nirvana: Understanding Psychedelic Medicines (2013)


Neurons to Nirvana: Understanding Psychedelic Medicines (2013)


Neurons to Nirvana: Understanding Psychedelic Medicines (2013)


Download link:
Links are Interchangeable - Single Extraction - Premium is support resumable
Direct Download

Tags: Neurons, Nirvana, Understanding, Psychedelic, Medicines

Comments
Name:*
E-Mail:*
Add Comments:
Enter Code: *