Download Now

Vinyl S01E09 (2016)

Vinyl S01E09 (2016)
HDTV 720p | MKV / [email protected] kb/s | 1280x720 | 55mn | 2.66 GB | English: AC3, 384 kb/s (6 ch) | Subtiltes: English
Genre: Drama | Music

A New York music executive in the late 1970s hustles to make a career out of the city's diverse music scene.
MediaInfo



General
Complete name : D:\s\Vinyl.S01E09.720p.HDTV.x264-FLEET[rarbg]\Vinyl.S01E09.720p.HDTV.x264-FLEET.mkv
Format : Matroska
Format version : Version 2
File size : 2.66 GiB
Duration : 55mn 26s
Overall bit rate : 6 870 Kbps
Writing application : libebml v1.3.0 + libmatroska v1.4.0
Writing library : mkvmerge v6.1.0 ('Old Devil') built on Mar 2 2013 14:32:37

Video
ID : 1
Format : AVC
Format/Info : Advanced Video Codec
Format profile : [email protected]
Format settings, CABAC : Yes
Format settings, ReFrames : 5 frames
Codec ID : V_MPEG4/ISO/AVC
Duration : 55mn 26s
Bit rate : 6 349 Kbps
Width : 1 280 pixels
Height : 720 pixels
Display aspect ratio : 16:9
Frame rate mode : Constant
Frame rate : 23.976 fps
Color space : YUV
Chroma subsampling : 4:2:0
Bit depth : 8 bits
Scan type : Progressive
Bits/(Pixel*Frame) : 0.287
Stream size : 2.46 GiB (92%)
Writing library : x264 core 148 r2665 a01e339
Encoding settings : cabac=1 / ref=5 / deblock=1:-3:-3 / analyse=0x3:0x113 / me=umh / subme=8 / psy=1 / psy_rd=1.05:0.00 / mixed_ref=1 / me_range=16 / chroma_me=1 / trellis=1 / 8x8dct=1 / cqm=0 / deadzone=21,11 / fast_pskip=1 / chroma_qp_offset=-2 / threads=22 / lookahead_threads=3 / sliced_threads=0 / nr=0 / decimate=1 / interlaced=0 / bluray_compat=0 / constrained_intra=0 / bframes=3 / b_pyramid=2 / b_adapt=2 / b_bias=0 / direct=3 / weightb=1 / open_gop=0 / weightp=2 / keyint=250 / keyint_min=23 / scenecut=40 / intra_refresh=0 / rc_lookahead=50 / rc=crf / mbtree=1 / crf=18.0 / qcomp=0.60 / qpmin=0 / qpmax=69 / qpstep=4 / ip_ratio=1.40 / aq=3:0.80
Language : English
Default : Yes
Forced : No

Audio
ID : 2
Format : AC-3
Format/Info : Audio Coding 3
Mode extension : CM (complete main)
Format settings, Endianness : Big
Codec ID : A_AC3
Duration : 55mn 26s
Bit rate mode : Constant
Bit rate : 384 Kbps
Channel(s) : 6 channels
Channel(s)_Original : 2 channels
Channel positions : Front: L R
Sampling rate : 48.0 KHz
Compression mode : Lossy
Stream size : 152 MiB (6%)
Language : English
Default : Yes
Forced : No

Text
ID : 3
Format : UTF-8
Codec ID : S_TEXT/UTF8
Codec ID/Info : UTF-8 Plain Text
Title : English
Language : English
Default : No
Forced : No


Screenshots

Vinyl S01E09 (2016)


Vinyl S01E09 (2016)


Vinyl S01E09 (2016)


Download link:
Links are Interchangeable - Single Extraction - Premium is support resumable
Direct Download
Comments
Name:*
E-Mail:*
Add Comments:
Enter Code: *