Download Now

Hap and Leonard S01E06 (2016)

Hap and Leonard S01E06 (2016)
WEB-DL 720p | MKV / [email protected] kb/s | 1280x718 | 42mn | 1.25 GB | English: AC3, 384 kb/s (6 ch) | Subtiltes: English
Genre: Drama

Hap Collins, an East Texas white boy with a weakness for Southern women, meets Leonard Pine, a gay, black Vietnam vet with a hot temper. When Hap's seductive ex-wife Trudy resurfaces with a deal they can't refuse, a simple get-rich-quick scheme snowballs into bloody mayhem.
MediaInfo



General
Unique ID : 227600007360653300738357388962307001165 (0xAB3A2ABD5B7ACE0DA93F04F93FBC4B4D)
Complete name : D:\s\Hap.and.Leonard.S01E06.Eskimos.720p.WEB-DL.DD5.1.H.264-Coo7.mkv
Format : Matroska
Format version : Version 4 / Version 2
File size : 1.25 GiB
Duration : 42mn 16s
Overall bit rate : 4 221 Kbps
Encoded date : UTC 2016-04-07 18:07:42
Writing application : mkvmerge v8.8.0 ('Wind at my back') 64bit
Writing library : libebml v1.3.3 + libmatroska v1.4.4
DURATION : 00:41:41.598000000
NUMBER_OF_FRAMES : 439
NUMBER_OF_BYTES : 16605
_STATISTICS_WRITING_APP : mkvmerge v8.8.0 ('Wind at my back') 64bit
_STATISTICS_WRITING_DATE_UT : 2016-04-07 18:07:42
_STATISTICS_TAGS : BPS DURATION NUMBER_OF_FRAMES NUMBER_OF_BYTES

Video
ID : 1
Format : AVC
Format/Info : Advanced Video Codec
Format profile : [email protected]
Format settings, CABAC : No
Format settings, ReFrames : 2 frames
Codec ID : V_MPEG4/ISO/AVC
Duration : 42mn 16s
Bit rate : 3 753 Kbps
Width : 1 280 pixels
Height : 718 pixels
Display aspect ratio : 16:9
Frame rate mode : Constant
Frame rate : 23.976 fps
Color space : YUV
Chroma subsampling : 4:2:0
Bit depth : 8 bits
Scan type : Progressive
Bits/(Pixel*Frame) : 0.170
Stream size : 1.11 GiB (89%)
Language : English
Default : Yes
Forced : No
Color range : Limited
Color primaries : BT.709
Transfer characteristics : BT.709
Matrix coefficients : BT.709

Audio
ID : 2
Format : AC-3
Format/Info : Audio Coding 3
Mode extension : CM (complete main)
Format settings, Endianness : Big
Codec ID : A_AC3
Duration : 42mn 16s
Bit rate mode : Constant
Bit rate : 384 Kbps
Channel(s) : 6 channels
Channel positions : Front: L C R, Side: L R, LFE
Sampling rate : 48.0 KHz
Compression mode : Lossy
Stream size : 116 MiB (9%)
Language : English
Default : Yes
Forced : No

Text
ID : 3
Format : UTF-8
Codec ID : S_TEXT/UTF8
Codec ID/Info : UTF-8 Plain Text
Language : English
Default : Yes
Forced : No


Screenshots

Hap and Leonard S01E06 (2016)


Hap and Leonard S01E06 (2016)


Hap and Leonard S01E06 (2016)


Download link:
Links are Interchangeable - Single Extraction - Premium is support resumable
Direct Download

Tags: Leonard

Comments
Name:*
E-Mail:*
Add Comments:
Enter Code: *