Download Now


BBC - Tales of Winter: The Art of Snow and Ice (2013)
BBC - Tales of Winter: The Art of Snow and Ice (2013)
PDTV | MP4 | 832x468 | [email protected] Kbps | English [email protected] Kbps | 2 channels | 1h 28mn | 857 MiB
HDTV | MKV | 1920x1080 | [email protected] Kbps | English [email protected] Kbps | 2 channels | 1h 28mn | 2.34 GiB
Genre: Documentary

Winter was not always beautiful. Until Pieter Bruegel painted Hunters in the Snow, the long bitter months had never been transformed into a thing of beauty. This documentary charts how mankind's ever-changing struggle with winter has been reflected in western art throughout the ages, resulting in images that are now amongst the greatest paintings of all time. With contributions from Grayson Perry, Will Self, Don McCullin and many others, the film takes an eclectic group of people from all walks of life out into the cold to reflect on the paintings that have come to define the art of snow and ice.

MediaInfo PDTV



General
Complete name : BBC.Tales.of.Winter.The.Art.of.Snow.and.Ice.PDTV.mp4
Format : MPEG-4
Format profile : Base Media
Codec ID : isom
File size : 857 MiB
Duration : 1h 28mn
Overall bit rate mode : Variable
Overall bit rate : 1 347 Kbps

Video
ID : 1
Format : AVC
Format/Info : Advanced Video Codec
Format profile : [email protected]
Format settings, CABAC : Yes
Format settings, ReFrames : 1 frame
Format settings, GOP : M=1, N=12
Codec ID : avc1
Codec ID/Info : Advanced Video Coding
Duration : 1h 28mn
Bit rate : 1 217 Kbps
Maximum bit rate : 7 121 Kbps
Width : 832 pixels
Height : 468 pixels
Display aspect ratio : 16:9
Frame rate mode : Constant
Frame rate : 25.000 fps
Color space : YUV
Chroma subsampling : 4:2:0
Bit depth : 8 bits
Scan type : Progressive
Bits/(Pixel*Frame) : 0.125
Stream size : 774 MiB (90%)
Audio
ID : 2
Format : AAC
Format/Info : Advanced Audio Codec
Format profile : LC
Codec ID : 40
Duration : 1h 28mn
Bit rate mode : Variable
Bit rate : 128 Kbps
Maximum bit rate : 172 Kbps
Channel(s) : 2 channels
Channel positions : Front: L R
Sampling rate : 48.0 KHz
Compression mode : Lossy
Stream size : 81.4 MiB (9%)
Encoded date : UTC 2016-04-04 08:29:56
Tagged date : UTC 2016-04-04 08:30:04

Text
ID : 3
Format : Timed Text
Codec ID : tx3g
Duration : 1h 28mn
Bit rate mode : Variable
Bit rate : 112 bps
Stream size : 72.7 KiB (0%)
Encoded date : UTC 2016-04-04 08:30:04
Tagged date : UTC 2016-04-04 08:30:04


MediaInfo 1080p



General
Unique ID : 194892382303879943316220149012532907988 (0x929EE851FFAA4334ACB2F283DF7D4FD4)
Complete name : BBC.Tales.of.Winter.The.Art.of.Snow.and.Ice.1080p.mkv
Format : Matroska
Format version : Version 4 / Version 2
File size : 2.34 GiB
Duration : 1h 28mn
Overall bit rate : 3 759 Kbps

Video
ID : 1
Format : AVC
Format/Info : Advanced Video Codec
Format profile : [email protected]
Format settings, CABAC : Yes
Format settings, ReFrames : 4 frames
Codec ID : V_MPEG4/ISO/AVC
Duration : 1h 28mn
Width : 1 920 pixels
Height : 1 080 pixels
Display aspect ratio : 16:9
Frame rate mode : Constant
Frame rate : 25.000 fps
Color space : YUV
Chroma subsampling : 4:2:0
Bit depth : 8 bits
Scan type : Progressive
Writing library : x264 core 148 r2665 a01e339
Encoding settings : cabac=1 / ref=4 / deblock=1:0:0 / analyse=0x3:0x113 / me=umh / subme=9 / psy=1 / psy_rd=1.00:0.00 / mixed_ref=1 / me_range=32 / chroma_me=1 / trellis=1 / 8x8dct=1 / cqm=0 / deadzone=21,11 / fast_pskip=0 / chroma_qp_offset=-2 / threads=3 / lookahead_threads=1 / sliced_threads=0 / nr=0 / decimate=1 / interlaced=0 / bluray_compat=0 / constrained_intra=0 / bframes=6 / b_pyramid=2 / b_adapt=2 / b_bias=0 / direct=1 / weightb=1 / open_gop=0 / weightp=2 / keyint=250 / keyint_min=25 / scenecut=40 / intra_refresh=0 / rc_lookahead=40 / rc=crf / mbtree=1 / crf=21.5 / qcomp=0.60 / qpmin=0 / qpmax=69 / qpstep=4 / ip_ratio=1.40 / aq=1:1.00
Language : English
Default : Yes
Forced : No

Audio
ID : 2
Format : AAC
Format/Info : Advanced Audio Codec
Format profile : LC
Codec ID : A_AAC
Duration : 1h 28mn
Channel(s) : 2 channels
Channel positions : Front: L R
Sampling rate : 48.0 KHz
Compression mode : Lossy
Delay relative to video : 9ms
Language : English
Default : Yes
Forced : No

Text
ID : 3
Format : UTF-8
Codec ID : S_TEXT/UTF8
Codec ID/Info : UTF-8 Plain Text
Language : English
Default : No
Forced : No


Screenshots PDTV:

BBC - Tales of Winter: The Art of Snow and Ice (2013)


BBC - Tales of Winter: The Art of Snow and Ice (2013)


BBC - Tales of Winter: The Art of Snow and Ice (2013)


BBC - Tales of Winter: The Art of Snow and Ice (2013)

Screenshots HDTV:

BBC - Tales of Winter: The Art of Snow and Ice (2013)


BBC - Tales of Winter: The Art of Snow and Ice (2013)


BBC - Tales of Winter: The Art of Snow and Ice (2013)


BBC - Tales of Winter: The Art of Snow and Ice (2013)



Download link:
Links are Interchangeable - Single Extraction - Premium is support resumable
Direct Download

Tags: Winter

Comments
Name:*
E-Mail:*
Add Comments:
Enter Code: *