Download Now

The Walking Dead S06E15 (2016)
The Walking Dead S06E15 (2016)
HDRip | MKV / kb/s | 720x400 | 43mn | 582 MB | English: AC3, 384 kb/s (6 ch)

WEB-DL 720p | MKV / kb/s | 1280x718 | 43mn | 1.32 GB | English: AC3, 384 kb/s (6 ch)
WEB-DL 1080p | MKV / kb/s | 1916x1076 | 43mn | 1.67 GB | English: AC3, 384 kb/s (6 ch)
Genre: Drama | Horror
Sheriff Deputy Rick Grimes gets shot in combat and awakens to a zombie apocalypse. He meets a group on the outskirts of Atlanta and soon, becomes their leader. The walkers (what they call zombies) feed on the living, so they try to move to different and safer locations to survive.
- Top Rated TV #160 | Nominated for 1 Golden Globe. Another 42 wins & 117 nominations. MediaInfo HDRip
General
Unique ID : 129841608991763366071165842407864892962 (0x61AE9593460586F86D77C8C939F77E22)
Complete name : C:\The.walking.dead.s06e15.HDRip.mkv
Format
: Matroska
Format version : Version 2
File size : 582 MiB
Duration : 43mn 7s
Overall bit rate : 1 887 Kbps
Encoded date : UTC
Writing application : HandBrake 0.10.2 2015060900
Writing library : Lavf55.12.0
Video
ID : 1
Format
: AVC
Format/Info : Advanced Video Codec
Format profile :
Format settings, CABAC : No
Format settings, ReFrames : 1 frame
Codec ID : V_MPEG4/ISO/AVC
Duration : 43mn 7s
Bit rate : 1 500 Kbps
Width
: 720 pixels
Height
: 400 pixels
Display aspect ratio : 16:9
Frame rate mode : Constant
Frame rate : 23.976 fps
Color space : YUV
Chroma subsampling : 4:2:0
Bit depth : 8 bits
Scan type : Progressive
Bits/(Pixel*Frame) : 0.217
Stream size : 452 MiB (78%)
Writing library : x264 core 142 r2479 dd79a61
Encoding settings : cabac=0 / ref=1 / deblock=1:0:0 / analyse=0x1:0x111 / me=hex / subme=2 / psy=1 / psy_rd=1.00:0.00 / mixed_ref=0 / me_range=16 / chroma_me=1 / trellis=0 / 8x8dct=0 / cqm=0 / deadzone=21,11 / fast_pskip=1 / chroma_qp_offset=0 / threads=12 / lookahead_threads=3 / sliced_threads=0 / nr=0 / decimate=1 / interlaced=0 / bluray_compat=0 / constrained_intra=0 / bframes=0 / weightp=0 / keyint=240 / keyint_min=24 / scenecut=40 / intra_refresh=0 / rc_lookahead=10 / rc=2pass / mbtree=1 / bitrate=1500 / ratetol=1.0 / qcomp=0.60 / qpmin=0 / qpmax=69 / qpstep=4 / cplxblur=20.0 / qblur=0.5 / vbv_maxrate=14000 / vbv_bufsize=14000 / nal_hrd=none / filler=0 / ip_ratio=1.40 / aq=1:1.00
Default : Yes
Forced
: No
Color range : Limited
Color primaries : BT.709
Transfer characteristics : BT.709
Matrix coefficients : BT.709
Audio
ID : 2
Format
: AC-3
Format/Info : Audio Coding 3
Mode extension : CM (complete main)
Format settings, Endianness : Big
Codec ID : A_AC3
Duration : 43mn 7s
Bit rate mode : Constant
Bit rate : 384 Kbps
Channel(s) : 6 channels
Channel positions : Front: L C R, Side: L R, LFE
Sampling rate : 48.0 KHz
Compression mode : Lossy
Stream size : 118 MiB (20%)
Title
: Surround
Language : English
Default : Yes
Forced
: No
MediaInfo WEB-DL 720p
General
Unique ID : 212929805675767935173161344452104829612 (0xA030C9F4100EDE998807B1B732243AAC)
Complete name : C:\The.Walking.Dead.S06E15.720p.WEB-DL.mkv
Format
: Matroska
Format version : Version 4 / Version 2
File size : 1.32 GiB
Duration : 43mn 7s
Overall bit rate : 4 374 Kbps
Encoded date : UTC 2016-03-28 07:41:51
Writing application : mkvmerge v8.3.0 ('Over the Horizon') 64bit
Writing library : libebml v1.3.1 + libmatroska v1.4.2
DURATION : 00:43:07.328000000
NUMBER_OF_FRAMES : 80854
NUMBER_OF_BYTES : 124191744
_STATISTICS_WRITING_APP : mkvmerge v8.3.0 ('Over the Horizon') 64bit
_STATISTICS_WRITING_DATE_UT : 2016-03-28 07:41:51
_STATISTICS_TAGS : BPS DURATION NUMBER_OF_FRAMES NUMBER_OF_BYTES
Video
ID : 1
Format
: AVC
Format/Info : Advanced Video Codec
Format profile :
Format settings, CABAC : No
Format settings, ReFrames : 2 frames
Codec ID : V_MPEG4/ISO/AVC
Duration : 43mn 7s
Bit rate : 3 903 Kbps
Width
: 1 280 pixels
Height
: 718 pixels
Display aspect ratio : 16:9
Frame rate mode : Constant
Frame rate : 23.976 fps
Color space : YUV
Chroma subsampling : 4:2:0
Bit depth : 8 bits
Scan type : Progressive
Bits/(Pixel*Frame) : 0.177
Stream size : 1.18 GiB (89%)
Language : English
Default : Yes
Forced
: No
Color range : Limited
Color primaries : BT.709
Transfer characteristics : BT.709
Matrix coefficients : BT.709
Audio
ID : 2
Format
: AC-3
Format/Info : Audio Coding 3
Mode extension : CM (complete main)
Format settings, Endianness : Big
Codec ID : A_AC3
Duration : 43mn 7s
Bit rate mode : Constant
Bit rate : 384 Kbps
Channel(s) : 6 channels
Channel positions : Front: L C R, Side: L R, LFE
Sampling rate : 48.0 KHz
Compression mode : Lossy
Stream size : 118 MiB (9%)
Language : English
Default : Yes
Forced
: No
MediaInfo WEB-DL 1080p
General
Unique ID : 222971900359801678140444000783442859652 (0xA7BED37281C56768A4AF3FEC708B5684)
Complete name : C:\The.Walking.Dead.S06E15.1080p.WEB-DL.mkv
Format
: Matroska
Format version : Version 4 / Version 2
File size : 1.67 GiB
Duration : 43mn 7s
Overall bit rate : 5 549 Kbps
Encoded date : UTC 2016-03-28 07:42:11
Writing application : mkvmerge v8.3.0 ('Over the Horizon') 64bit
Writing library : libebml v1.3.1 + libmatroska v1.4.2
DURATION : 00:43:07.328000000
NUMBER_OF_FRAMES : 80854
NUMBER_OF_BYTES : 124191744
_STATISTICS_WRITING_APP : mkvmerge v8.3.0 ('Over the Horizon') 64bit
_STATISTICS_WRITING_DATE_UT : 2016-03-28 07:42:11
_STATISTICS_TAGS : BPS DURATION NUMBER_OF_FRAMES NUMBER_OF_BYTES
Video
ID : 1
Format
: AVC
Format/Info : Advanced Video Codec
Format profile :
Format settings, CABAC : Yes
Format settings, ReFrames : 4 frames
Codec ID : V_MPEG4/ISO/AVC
Duration : 43mn 7s
Bit rate : 5 054 Kbps
Width
: 1 916 pixels
Height
: 1 076 pixels
Display aspect ratio : 16:9
Frame rate mode : Constant
Frame rate : 23.976 fps
Color space : YUV
Chroma subsampling : 4:2:0
Bit depth : 8 bits
Scan type : Progressive
Bits/(Pixel*Frame) : 0.102
Stream size : 1.52 GiB (91%)
Language : English
Default : Yes
Forced
: No
Color range : Limited
Color primaries : BT.709
Transfer characteristics : BT.709
Matrix coefficients : BT.709
Audio
ID : 2
Format
: AC-3
Format/Info : Audio Coding 3
Mode extension : CM (complete main)
Format settings, Endianness : Big
Codec ID : A_AC3
Duration : 43mn 7s
Bit rate mode : Constant
Bit rate : 384 Kbps
Channel(s) : 6 channels
Channel positions : Front: L C R, Side: L R, LFE
Sampling rate : 48.0 KHz
Compression mode : Lossy
Stream size : 118 MiB (7%)
Language : English
Default : Yes
Forced
: No
Screenshots HDRip
The Walking Dead S06E15 (2016)

The Walking Dead S06E15 (2016)

The Walking Dead S06E15 (2016)

Screenshots WEB-DL 720p
The Walking Dead S06E15 (2016)

The Walking Dead S06E15 (2016)

The Walking Dead S06E15 (2016)

Screenshots WEB-DL 1080p
The Walking Dead S06E15 (2016)

The Walking Dead S06E15 (2016)

The Walking Dead S06E15 (2016)

Links are Interchangeable - No Password - Single Extraction



.:DOWNLOAD LINKS:.
Buy Premium From My Download Links To Get Resumable Support, Max Speed & Support Me


All above links are interchangable. No password


The Walking Dead S06E15 (2016)
Direct Download

Tags: Walking

Comments
Name:*
E-Mail:*
Add Comments:
Enter Code: *