Download Now

American Crime Story S01E09 (2016)

American Crime Story S01E09 (2016)
HDTV 720p | MKV / [email protected] kb/s | 1280x720 | 48mn | 1.30 GB | English: AC3, 384 kb/s (6 ch)
Genre: Biography | Crime | Drama

There are few truly unifying events in American life. When something happens that makes the entire country stop and take notice, we remember it forever. Everybody remembers where they were when O.J. Simpson, riding in a white Bronco, led the police on a low-speed chase all over Los Angeles. This marked the emergence of the 24-hour news cycle and the birth of reality television.
- 1 win.


MediaInfo



General
Unique ID : 257277225134181628452276566795881350396 (0xC18DCA8B64C391311C98BE4B4B3D04FC)
Complete name : D:\s\American.Crime.Story.S01E09.720p.HDTV.x264-AVS[rarbg]\American.Crime.Story.S01E09.720p.HDTV.x264-AVS.mkv
Format : Matroska
Format version : Version 2
File size : 1.30 GiB
Duration : 48mn 29s
Overall bit rate : 3 838 Kbps
Writing application : mkv 2.1.1 AVS
Writing library : mkv 2.1.1 AVS

Video
ID : 1
Format : AVC
Format/Info : Advanced Video Codec
Format profile : [email protected]
Format settings, CABAC : Yes
Format settings, ReFrames : 5 frames
Codec ID : V_MPEG4/ISO/AVC
Duration : 48mn 29s
Bit rate : 3 377 Kbps
Width : 1 280 pixels
Height : 720 pixels
Display aspect ratio : 16:9
Frame rate mode : Constant
Frame rate : 23.976 fps
Color space : YUV
Chroma subsampling : 4:2:0
Bit depth : 8 bits
Scan type : Progressive
Bits/(Pixel*Frame) : 0.153
Stream size : 1.14 GiB (88%)
Writing library : x264 core 148 r2665 a01e339
Encoding settings : cabac=1 / ref=5 / deblock=1:0:0 / analyse=0x3:0x113 / me=umh / subme=8 / psy=1 / psy_rd=1.00:0.00 / mixed_ref=1 / me_range=16 / chroma_me=1 / trellis=1 / 8x8dct=1 / cqm=0 / deadzone=21,11 / fast_pskip=1 / chroma_qp_offset=-2 / threads=22 / lookahead_threads=3 / sliced_threads=0 / nr=0 / decimate=1 / interlaced=0 / bluray_compat=0 / constrained_intra=0 / bframes=3 / b_pyramid=2 / b_adapt=2 / b_bias=0 / direct=3 / weightb=1 / open_gop=0 / weightp=2 / keyint=250 / keyint_min=23 / scenecut=40 / intra_refresh=0 / rc_lookahead=50 / rc=crf / mbtree=1 / crf=18.0 / qcomp=0.60 / qpmin=0 / qpmax=69 / qpstep=4 / ip_ratio=1.40 / aq=1:1.00
Language : English
Default : Yes
Forced : No
Color range : Limited
Matrix coefficients : BT.709

Audio
ID : 2
Format : AC-3
Format/Info : Audio Coding 3
Mode extension : CM (complete main)
Format settings, Endianness : Big
Codec ID : A_AC3
Duration : 48mn 29s
Bit rate mode : Constant
Bit rate : 384 Kbps
Channel(s) : 6 channels
Channel positions : Front: L C R, Side: L R, LFE
Sampling rate : 48.0 KHz
Compression mode : Lossy
Stream size : 133 MiB (10%)
Default : Yes
Forced : No


Screenshots

American Crime Story S01E09 (2016)


American Crime Story S01E09 (2016)


American Crime Story S01E09 (2016)


Download link:
Links are Interchangeable - Single Extraction - Premium is support resumable
Direct Download

Tags: American

Comments
Name:*
E-Mail:*
Add Comments:
Enter Code: *