Download Now

Supergirl S01E18 (2015)

Supergirl S01E18 (2015)
HDTV 720p | MKV / AVC, 2624 Kbps | 1280x720 | 44mn 26s | 976 MiB
English: AC3, 384 Kbps (6 ch) | Subtitles: None
Genre: Action | Adventure | Sci-Fi

Twenty-four-year-old Kara Zor-El,cousin of Superman, who was taken in by the Danvers family when she was 12 after being sent away from Krypton, must learn to embrace her powers after previously hiding them. The Danvers teach her to be careful with her powers, until she has to reveal them during an unexpected disaster, setting her on her journey of heroism.
mediainfo:


General
Unique ID : 301070552629568683507698803472194800030 (0xE280144AEC8D2E3CA5DACB4CEFE7099E)
Complete name : Supergirl.S01E18.720p.HDTV.X264-DIMENSION.mkv
Format : Matroska
Format version : Version 4 / Version 2
File size : 976 MiB
Duration : 44mn 26s
Overall bit rate : 3 069 Kbps
Encoded date : UTC 2016-03-28 21:53:50
Writing application : mkvmerge v8.4.0 ('A better way to fly') 64bit
Writing library : libebml v1.3.1 + libmatroska v1.4.2
DURATION : 00:44:26.432000000
NUMBER_OF_FRAMES : 83326
NUMBER_OF_BYTES : 127988736
_STATISTICS_WRITING_APP : mkvmerge v8.4.0 ('A better way to fly') 64bit
_STATISTICS_WRITING_DATE_UT : 2016-03-28 21:53:50
_STATISTICS_TAGS : BPS DURATION NUMBER_OF_FRAMES NUMBER_OF_BYTES

Video
ID : 1
Format : AVC
Format/Info : Advanced Video Codec
Format profile : [email protected]
Format settings, CABAC : Yes
Format settings, ReFrames : 9 frames
Codec ID : V_MPEG4/ISO/AVC
Duration : 44mn 26s
Bit rate : 2 624 Kbps
Width : 1 280 pixels
Height : 720 pixels
Display aspect ratio : 16:9
Frame rate mode : Constant
Frame rate : 23.976 fps
Color space : YUV
Chroma subsampling : 4:2:0
Bit depth : 8 bits
Scan type : Progressive
Bits/(Pixel*Frame) : 0.119
Stream size : 834 MiB (85%)
Writing library : x264 core 148 r2665 a01e339
Encoding settings : cabac=1 / ref=9 / deblock=1:-2:-2 / analyse=0x3:0x133 / me=umh / subme=10 / psy=1 / psy_rd=1.00:0.00 / mixed_ref=1 / me_range=32 / chroma_me=1 / trellis=2 / 8x8dct=1 / cqm=0 / deadzone=21,11 / fast_pskip=0 / chroma_qp_offset=-2 / threads=20 / lookahead_threads=2 / sliced_threads=0 / nr=0 / decimate=1 / interlaced=0 / bluray_compat=0 / constrained_intra=0 / bframes=5 / b_pyramid=2 / b_adapt=2 / b_bias=0 / direct=3 / weightb=1 / open_gop=0 / weightp=2 / keyint=250 / keyint_min=23 / scenecut=40 / intra_refresh=0 / rc_lookahead=60 / rc=crf / mbtree=1 / crf=18.0 / qcomp=0.60 / qpmin=0 / qpmax=69 / qpstep=4 / ip_ratio=1.40 / aq=1:1.00
Language : English
Default : Yes
Forced : No
Color range : Limited
Matrix coefficients : BT.709
DURATION : 00:44:26.456000000
NUMBER_OF_FRAMES : 63931
NUMBER_OF_BYTES : 894419851
_STATISTICS_WRITING_APP : mkvmerge v8.4.0 ('A better way to fly') 64bit
_STATISTICS_WRITING_DATE_UT : 2016-03-28 21:53:50
_STATISTICS_TAGS : BPS DURATION NUMBER_OF_FRAMES NUMBER_OF_BYTES

Audio
ID : 2
Format : AC-3
Format/Info : Audio Coding 3
Mode extension : CM (complete main)
Format settings, Endianness : Big
Codec ID : A_AC3
Duration : 44mn 26s
Bit rate mode : Constant
Bit rate : 384 Kbps
Channel(s) : 6 channels
Channel positions : Front: L C R, Side: L R, LFE
Sampling rate : 48.0 KHz
Compression mode : Lossy
Stream size : 122 MiB (13%)
Default : Yes
Forced : No

screenshots:

Supergirl S01E18 (2015)


Supergirl S01E18 (2015)


Supergirl S01E18 (2015)


Download link:
Links are Interchangeable - Single Extraction - Premium is support resumable
Direct Download

Tags: Supergirl

Comments
Name:*
E-Mail:*
Add Comments:
Enter Code: *