Download Now

Elementary S04E18 (2016)

Elementary S04E18 (2016)
HDTV 720p | MKV / [email protected] kb/s | 1280x720 | 40mn | 732 MB | English: AC3, 384 kb/s (6 ch)
Genre: Crime | Drama | Mystery

A modern take on the cases of Sherlock Holmes, with the detective now living in New York City.
- Nominated for 2 Primetime Emmys. Another 5 wins & 13 nominations.


MediaInfo



General
Unique ID : 312473473043275087648929033747798338309 (0xEB1433ACD6EC448ABBDF708D025EAB05)
Complete name : D:\s\Elementary.S04E18.720p.HDTV.X264-DIMENSION[rarbg]\Elementary.S04E18.720p.HDTV.X264-DIMENSION.mkv
Format : Matroska
Format version : Version 4 / Version 2
File size : 732 MiB
Duration : 40mn 26s
Overall bit rate : 2 529 Kbps
Encoded date : UTC 2016-03-27 19:26:57
Writing application : mkvmerge v8.4.0 ('A better way to fly') 64bit
Writing library : libebml v1.3.1 + libmatroska v1.4.2
DURATION : 00:40:26.112000000
NUMBER_OF_FRAMES : 75816
NUMBER_OF_BYTES : 116453376
_STATISTICS_WRITING_APP : mkvmerge v8.4.0 ('A better way to fly') 64bit
_STATISTICS_WRITING_DATE_UT : 2016-03-27 19:26:57
_STATISTICS_TAGS : BPS DURATION NUMBER_OF_FRAMES NUMBER_OF_BYTES

Video
ID : 1
Format : AVC
Format/Info : Advanced Video Codec
Format profile : [email protected]
Format settings, CABAC : Yes
Format settings, ReFrames : 9 frames
Codec ID : V_MPEG4/ISO/AVC
Duration : 40mn 26s
Bit rate : 2 095 Kbps
Width : 1 280 pixels
Height : 720 pixels
Display aspect ratio : 16:9
Frame rate mode : Constant
Frame rate : 23.976 fps
Color space : YUV
Chroma subsampling : 4:2:0
Bit depth : 8 bits
Scan type : Progressive
Bits/(Pixel*Frame) : 0.095
Stream size : 606 MiB (83%)
Writing library : x264 core 148 r2665 a01e339
Encoding settings : cabac=1 / ref=9 / deblock=1:-2:-2 / analyse=0x3:0x133 / me=umh / subme=10 / psy=1 / psy_rd=1.00:0.00 / mixed_ref=1 / me_range=32 / chroma_me=1 / trellis=2 / 8x8dct=1 / cqm=0 / deadzone=21,11 / fast_pskip=0 / chroma_qp_offset=-2 / threads=16 / lookahead_threads=1 / sliced_threads=0 / nr=0 / decimate=1 / interlaced=0 / bluray_compat=0 / constrained_intra=0 / bframes=5 / b_pyramid=2 / b_adapt=2 / b_bias=0 / direct=3 / weightb=1 / open_gop=0 / weightp=2 / keyint=250 / keyint_min=23 / scenecut=40 / intra_refresh=0 / rc_lookahead=60 / rc=crf / mbtree=1 / crf=18.0 / qcomp=0.60 / qpmin=0 / qpmax=69 / qpstep=4 / ip_ratio=1.40 / aq=1:1.00
Language : English
Default : Yes
Forced : No
Color range : Limited
Matrix coefficients : BT.709
DURATION : 00:40:26.091000000
NUMBER_OF_FRAMES : 58168
NUMBER_OF_BYTES : 650077933
_STATISTICS_WRITING_APP : mkvmerge v8.4.0 ('A better way to fly') 64bit
_STATISTICS_WRITING_DATE_UT : 2016-03-27 19:26:57
_STATISTICS_TAGS : BPS DURATION NUMBER_OF_FRAMES NUMBER_OF_BYTES

Audio
ID : 2
Format : AC-3
Format/Info : Audio Coding 3
Mode extension : CM (complete main)
Format settings, Endianness : Big
Codec ID : A_AC3
Duration : 40mn 26s
Bit rate mode : Constant
Bit rate : 384 Kbps
Channel(s) : 6 channels
Channel positions : Front: L C R, Side: L R, LFE
Sampling rate : 48.0 KHz
Compression mode : Lossy
Stream size : 111 MiB (15%)
Default : Yes
Forced : No


Screenshots

Elementary S04E18 (2016)


Elementary S04E18 (2016)


Elementary S04E18 (2016)


Download link:
Links are Interchangeable - Single Extraction - Premium is support resumable
Direct Download

Tags: Elementary

Comments
Name:*
E-Mail:*
Add Comments:
Enter Code: *