Download Now

American Horror Story S05E06 (2015)

American Horror Story S05E06 (2015)
HDTV 720p | MKV / AVC, 2091 Kbps | 1280x720 | 50mn 42s | 916 MiB
English: AC3, 384 Kbps (6 ch) | Subtitles: English
Genre: Drama | Horror | Thriller

Both physical and psychological horrors affect a decomposing family, workers and residents of an insane asylum, a coven of witches, and a cast of circus freaks in this anthology series, focusing on the themes of infidelity, sanity, oppression, and discrimination.
imdb - Won 1 Golden Globe. Another 75 wins & 195 nominations.

General
Unique ID : 209502426065132966457514551422204655349 (0x9D9CB3178C3E1420995B709F207236F5)
Complete name : American.Horror.Story.S05E06.720p.HDTV.x264-KILLERS.mkv
Format : Matroska
Format version : Version 4 / Version 2
File size : 916 MiB
Duration : 50mn 42s
Overall bit rate : 2 525 Kbps
Encoded date : UTC 2015-11-12 04:49:04
Writing application : mkvmerge v7.0.0 ('Where We Going') 64bit built on Jun 22 2014 08:19:39
Writing library : libebml v1.3.0 + libmatroska v1.4.1

Video
ID : 1
Format : AVC
Format/Info : Advanced Video Codec
Format profile : [email protected]
Format settings, CABAC : Yes
Format settings, ReFrames : 5 frames
Codec ID : V_MPEG4/ISO/AVC
Duration : 50mn 42s
Bit rate : 2 091 Kbps
Width : 1 280 pixels
Height : 720 pixels
Display aspect ratio : 16:9
Frame rate mode : Constant
Frame rate : 23.976 fps
Color space : YUV
Chroma subsampling : 4:2:0
Bit depth : 8 bits
Scan type : Progressive
Bits/(Pixel*Frame) : 0.095
Stream size : 758 MiB (83%)
Writing library : x264 core 148 r2638 7599210
Encoding settings : cabac=1 / ref=5 / deblock=1:0:0 / analyse=0x3:0x113 / me=umh / subme=8 / psy=1 / psy_rd=1.00:0.00 / mixed_ref=1 / me_range=16 / chroma_me=1 / trellis=1 / 8x8dct=1 / cqm=0 / deadzone=21,11 / fast_pskip=1 / chroma_qp_offset=-2 / threads=22 / lookahead_threads=3 / sliced_threads=0 / nr=0 / decimate=1 / interlaced=0 / bluray_compat=0 / constrained_intra=0 / bframes=3 / b_pyramid=2 / b_adapt=2 / b_bias=0 / direct=3 / weightb=1 / open_gop=0 / weightp=2 / keyint=250 / keyint_min=23 / scenecut=40 / intra_refresh=0 / rc_lookahead=50 / rc=crf / mbtree=1 / crf=18.0 / qcomp=0.60 / qpmin=0 / qpmax=69 / qpstep=4 / ip_ratio=1.40 / aq=1:1.00
Language : English
Default : Yes
Forced : No
Color range : Limited
Matrix coefficients : BT.709

Audio
ID : 2
Format : AC-3
Format/Info : Audio Coding 3
Mode extension : CM (complete main)
Format settings, Endianness : Big
Codec ID : A_AC3
Duration : 50mn 42s
Bit rate mode : Constant
Bit rate : 384 Kbps
Channel(s) : 6 channels
Channel positions : Front: L C R, Side: L R, LFE
Sampling rate : 48.0 KHz
Compression mode : Lossy
Stream size : 139 MiB (15%)
Default : Yes
Forced : No

screenshots:

American Horror Story S05E06 (2015)

American Horror Story S05E06 (2015)

American Horror Story S05E06 (2015)


Download link:
Links are Interchangeable - Single Extraction - Premium is support resumable
Direct Download

Tags: American, Horror

Comments
Name:*
E-Mail:*
Add Comments:
Enter Code: *