Download Now


History Channel - Secrets of Einstein's Brain (2015)
History Channel - Secrets of Einstein's Brain (2015)
HDTV | 1280x720 | .MKV/AVC @ 2902 Kbps | 1h 23mn | Audio: English AC3 384 kbps, 6 channels | Subs: None | 1.97 GiB
Genre: Documentary

2015 marks the 60th anniversary of Albert Einstein's death, and the subsequent disappearance of his brain. After his brain was stolen by the doctor trusted to perform his autopsy, the priceless specimen was examined by scientists whose goal was to try and determine what made this seemingly normal man change the face of science and define the word genius. This documentary will follow the path of Einstein's physical brain and all the places it traveled, while simultaneously telling the story of Einstein the man. It dives deep into Einstein's life, his theories and not just what we've learned about the human brain by studying his, but what we have yet to learn.
General
Unique ID : 192979922690468303483198829771136889371 (0x912E94C80CA17EEBB6BF5C430C6EF21B)
Complete name : Secrets.of.Einsteins.Brain.mkv
Format : Matroska
Format version : Version 2
File size : 1.97 GiB
Duration : 1h 23mn
Overall bit rate : 3 353 Kbps

Video
ID : 1
Format : AVC
Format/Info : Advanced Video Codec
Format profile : [email protected]
Format settings, CABAC : Yes
Format settings, ReFrames : 5 frames
Codec ID : V_MPEG4/ISO/AVC
Duration : 1h 23mn
Bit rate : 2 902 Kbps
Width : 1 280 pixels
Height : 720 pixels
Display aspect ratio : 16:9
Frame rate mode : Constant
Frame rate : 23.976 fps
Color space : YUV
Chroma subsampling : 4:2:0
Bit depth : 8 bits
Scan type : Progressive
Bits/(Pixel*Frame) : 0.131
Stream size : 1.70 GiB (87%)
Writing library : x264 core 148 r2638 7599210
Encoding settings : cabac=1 / ref=5 / deblock=1:0:0 / analyse=0x3:0x113 / me=umh / subme=8 / psy=1 / psy_rd=1.00:0.00 / mixed_ref=1 / me_range=16 / chroma_me=1 / trellis=1 / 8x8dct=1 / cqm=0 / deadzone=21,11 / fast_pskip=1 / chroma_qp_offset=-2 / threads=12 / lookahead_threads=2 / sliced_threads=0 / nr=0 / decimate=1 / interlaced=0 / bluray_compat=0 / constrained_intra=0 / bframes=3 / b_pyramid=2 / b_adapt=2 / b_bias=0 / direct=3 / weightb=1 / open_gop=0 / weightp=2 / keyint=250 / keyint_min=23 / scenecut=40 / intra_refresh=0 / rc_lookahead=50 / rc=crf / mbtree=1 / crf=18.0 / qcomp=0.60 / qpmin=0 / qpmax=69 / qpstep=4 / ip_ratio=1.40 / aq=1:1.00
Default : Yes
Forced : No

Audio
ID : 2
Format : AC-3
Format/Info : Audio Coding 3
Mode extension : CM (complete main)
Format settings, Endianness : Big
Codec ID : A_AC3
Duration : 1h 23mn
Bit rate mode : Constant
Bit rate : 384 Kbps
Channel(s) : 6 channels
Channel positions : Front: L C R, Side: L R, LFE
Sampling rate : 48.0 KHz
Compression mode : Lossy
Stream size : 231 MiB (11%)
Default : Yes
Forced : No

Screenshots:

History Channel - Secrets of Einstein's Brain (2015)

History Channel - Secrets of Einstein's Brain (2015)

History Channel - Secrets of Einstein's Brain (2015)

History Channel - Secrets of Einstein's Brain (2015)


Download link:
Links are Interchangeable - Single Extraction - Premium is support resumable
Direct Download

Tags: History, Channel, Secrets, Einstein

Comments
Name:*
E-Mail:*
Add Comments:
Enter Code: *