Download Now


Channel 4 - Million Pound Properties: Series 1 (2015)
Channel 4 - Million Pound Properties: Series 1 (2015)
HDTV | 1280x720 | .MP4/AVC @ 3031 Kbps | 2x~46min | Audio: English AAC 160 kbps, 2 channels | Subs: None | 2.09 GiB
Genre: Documentary

Series following Britain's property millionaires as they buy and sell homes of wildly varying sizes across the UK.
Part 1:
The first edition features 22-year-old Lily Gray from Fulham, who is looking to make her first step on the property ladder. In central London, estate agent Tony Brown is trying to sell a tiny flat with a cupboard-sized kitchen for seven figures, and a couple search for a million pound castle they can refurbish to their tastes in Scotland.

Part 2:
Twenty two-year-old Lily goes house hunting with a million-pound trust fund, and the owner of an ex-council flat in Chelsea dreams of a seven-figure sale. Plus, a B&B on the Isle of Wight, the Enchanted Manor, cannot find a buyer, despite being on the market since 2008.

General
Complete name : Million.Pound.Properties.Series.1.2of2.mp4
Format : MPEG-4
Format profile : Base Media
Codec ID : isom
File size : 1.05 GiB
Duration : 46mn 57s
Overall bit rate mode : Variable
Overall bit rate : 3 196 Kbps

Video
ID : 1
Format : AVC
Format/Info : Advanced Video Codec
Format profile : [email protected]
Format settings, CABAC : No
Format settings, ReFrames : 1 frame
Format settings, GOP : M=1, N=12
Codec ID : avc1
Codec ID/Info : Advanced Video Coding
Duration : 46mn 57s
Bit rate : 3 031 Kbps
Width : 1 280 pixels
Height : 720 pixels
Display aspect ratio : 16:9
Frame rate mode : Constant
Frame rate : 25.000 fps
Color space : YUV
Chroma subsampling : 4:2:0
Bit depth : 8 bits
Scan type : Progressive
Bits/(Pixel*Frame) : 0.132
Stream size : 1 018 MiB (95%)
Encoded date : UTC 2015-10-16 09:51:29
Tagged date : UTC 2015-10-16 09:51:29

Audio
ID : 2
Format : AAC
Format/Info : Advanced Audio Codec
Format profile : LC
Codec ID : 40
Duration : 46mn 57s
Bit rate mode : Variable
Bit rate : 160 Kbps
Channel(s) : 2 channels
Channel positions : Front: L R
Sampling rate : 48.0 KHz
Compression mode : Lossy
Stream size : 53.7 MiB (5%)
Encoded date : UTC 2015-10-16 09:51:29
Tagged date : UTC 2015-10-16 09:51:29

Screenshots:

Channel 4 - Million Pound Properties: Series 1 (2015)

Channel 4 - Million Pound Properties: Series 1 (2015)

Channel 4 - Million Pound Properties: Series 1 (2015)

Channel 4 - Million Pound Properties: Series 1 (2015)


Download link:
Links are Interchangeable - Single Extraction - Premium is support resumable
Direct Download

Tags: Channel, Million, Properties, Series

Comments
Name:*
E-Mail:*
Add Comments:
Enter Code: *