Download Now

Hebrides: Islands on the Edge (2013)

Hebrides: Islands on the Edge (2013)
Bluray-rip 720p | 1280x720 | MKV/x264 @ 6419 Kbps | 4x59mn | Audio: English DTS 1510 kbps, 6 channels | Subs: None | 4x3.34 GB
Genre: Documentary

Four years in the making, this is a privileged view into the lives of a cast of Hebridean animals in this landmark four-part series narrated by Ewan McGregor. Among the animals featured are basking sharks and white-tailed eagles, as well as red deer stags battling to win their mates and seals struggling to protect their newborn pups.
Format : AVC
Format/Info : Advanced Video Codec
Format profile : [email protected]
Format settings, CABAC : Yes
Format settings, ReFrames : 7 frames
Codec ID : V_MPEG4/ISO/AVC
Duration : 59mn 3s
Bit rate : 6 419 Kbps
Width : 1 280 pixels
Height : 720 pixels
Display aspect ratio : 16:9
Frame rate : 25.000 fps
Color space : YUV
Chroma subsampling : 4:2:0
Bit depth : 8 bits
Scan type : Progressive
Bits/(Pixel*Frame) : 0.279
Stream size : 2.65 GiB (79%)
Title : DON 2014
Writing library : x264 core 142 r2431 ac76440
Encoding settings : cabac=1 / ref=7 / deblock=1:-3:-3 / analyse=0x3:0x113 / me=umh / subme=10 / psy=1 / psy_rd=1.00:0.08 / mixed_ref=1 / me_range=24 / chroma_me=1 / trellis=2 / 8x8dct=1 / cqm=0 / deadzone=21,11 / fast_pskip=0 / chroma_qp_offset=-3 / threads=6 / lookahead_threads=1 / sliced_threads=0 / nr=0 / decimate=0 / interlaced=0 / bluray_compat=0 / constrained_intra=0 / bframes=7 / b_pyramid=2 / b_adapt=2 / b_bias=0 / direct=3 / weightb=1 / open_gop=0 / weightp=2 / keyint=250 / keyint_min=25 / scenecut=40 / intra_refresh=0 / rc_lookahead=50 / rc=crf / mbtree=1 / crf=16.7 / qcomp=0.70 / qpmin=10 / qpmax=56 / qpstep=4 / vbv_maxrate=50000 / vbv_bufsize=60000 / crf_max=0.0 / nal_hrd=none / filler=0 / ip_ratio=1.40 / aq=2:0.80
Language : English

Audio
ID : 2
Format : DTS
Format/Info : Digital Theater Systems
Codec ID : A_DTS
Duration : 59mn 3s
Bit rate mode : Constant
Bit rate : 1 510 Kbps
Channel(s) : 6 channels
Channel positions : Front: L C R, Side: L R, LFE
Sampling rate : 48.0 KHz
Bit depth : 24 bits
Compression mode : Lossy
Stream size : 638 MiB (19%)
Title : DON 2014
Language : English

Text
ID : 3
Format : PGS
Muxing mode : zlib
Codec ID : S_HDMV/PGS
Codec ID/Info : The same subtitle format used on BDs/HD-DVDs
Title : DON 2014
Language : English

Menu
00:00:00.000 : en:00:00:00.000
00:15:56.000 : en:00:15:56.000
00:36:45.000 : en:00:36:45.000
00:47:35.000 : en:00:47:35.000

Hebrides: Islands on the Edge (2013)


Download link:
Rapidgator:
5dvq9.heber01.part1.rar.html
5dvq9.heber01.part2.rar.html
5dvq9.heber01.part3.rar.html
5dvq9.heber01.part4.rar.html
5dvq9.heber01.part5.rar.html
5dvq9.heber01.part6.rar.html
5dvq9.heber01.part7.rar.html
5dvq9.heber02.part1.rar.html
5dvq9.heber02.part2.rar.html
5dvq9.heber02.part3.rar.html
5dvq9.heber02.part4.rar.html
5dvq9.heber02.part5.rar.html
5dvq9.heber02.part6.rar.html
5dvq9.heber02.part7.rar.html
5dvq9.heber03.part01.rar.html
5dvq9.heber03.part02.rar.html
5dvq9.heber03.part03.rar.html
5dvq9.heber03.part04.rar.html
5dvq9.heber03.part05.rar.html
5dvq9.heber03.part06.rar.html
5dvq9.heber03.part07.rar.html
5dvq9.heber03.part08.rar.html
5dvq9.heber03.part09.rar.html
5dvq9.heber04.part01.rar.html
5dvq9.heber04.part02.rar.html
5dvq9.heber04.part03.rar.html
5dvq9.heber04.part04.rar.html
5dvq9.heber04.part05.rar.html
5dvq9.heber04.part06.rar.html
5dvq9.heber04.part07.rar.html
5dvq9.heber04.part08.rar.html
5dvq9.heber04.part09.rar.html

Uploadable.ch:
5dvq9.heber01.part1.rar
5dvq9.heber01.part2.rar
5dvq9.heber01.part3.rar
5dvq9.heber01.part4.rar
5dvq9.heber01.part5.rar
5dvq9.heber01.part6.rar
5dvq9.heber01.part7.rar
5dvq9.heber02.part1.rar
5dvq9.heber02.part2.rar
5dvq9.heber02.part3.rar
5dvq9.heber02.part4.rar
5dvq9.heber02.part5.rar
5dvq9.heber02.part6.rar
5dvq9.heber02.part7.rar
5dvq9.heber03.part01.rar
5dvq9.heber03.part02.rar
5dvq9.heber03.part03.rar
5dvq9.heber03.part04.rar
5dvq9.heber03.part05.rar
5dvq9.heber03.part06.rar
5dvq9.heber03.part07.rar
5dvq9.heber03.part08.rar
5dvq9.heber03.part09.rar
5dvq9.heber04.part01.rar
5dvq9.heber04.part02.rar
5dvq9.heber04.part03.rar
5dvq9.heber04.part04.rar
5dvq9.heber04.part05.rar
5dvq9.heber04.part06.rar
5dvq9.heber04.part07.rar
5dvq9.heber04.part08.rar
5dvq9.heber04.part09.rar
Links are Interchangeable - Single Extraction - Premium is support resumable
Direct Download

Tags: Hebrides, Islands

Comments
Name:*
E-Mail:*
Add Comments:
Enter Code: *