Download Now


National Geographic - Queen Elephant (2014)
National Geographic - Queen Elephant (2014)
HDTV | 1280x720 | .MP4/AVC @ 3014 Kbps | 43mn 59s | Audio: English AAC 160 kbps, 2 channels | Subs: None | 1000 MiB
Genre: Documentary

For African elephants, survival depends on successful migration to and from their ancestral feeding grounds each year. They must constantly follow the rhythms of the seasons, treading the millennia-old paths to reliable sources of food and water-and away from dangerous predators. During the dry season of late summer and autumn, elephants must risk the journey toward water and the promise of continued survival for the herd. Crisscrossing the continent from watering hole to watering hole, the herd can only survive if its leader remembers the exact location of each crucial pit stop. This responsibility falls to the matriarch of each elephant herd: the eldest female has a long memory, coupled with a lifetime of honing her instinctual awareness of the landscape around her. After the tragic death of her mother, the old elephant matriarch, Mensah must now take her young calf and the herd to safety. She is their final hope and must lead them into their ancient feeding grounds.
General
Complete name : National.Geographic.Queen.Elephant.mp4
Format : MPEG-4
Format profile : Base Media
Codec ID : isom
File size : 1 000 MiB
Duration : 43mn 59s
Overall bit rate mode : Variable
Overall bit rate : 3 179 Kbps

Video
ID : 1
Format : AVC
Format/Info : Advanced Video Codec
Format profile : [email protected]
Format settings, CABAC : No
Format settings, ReFrames : 1 frame
Format settings, GOP : M=1, N=12
Codec ID : avc1
Codec ID/Info : Advanced Video Coding
Duration : 43mn 59s
Bit rate : 3 014 Kbps
Width : 1 280 pixels
Height : 720 pixels
Display aspect ratio : 16:9
Frame rate mode : Constant
Frame rate : 25.000 fps
Color space : YUV
Chroma subsampling : 4:2:0
Bit depth : 8 bits
Scan type : Progressive
Bits/(Pixel*Frame) : 0.131
Stream size : 948 MiB (95%)
Encoded date : UTC 2015-10-08 09:56:29
Tagged date : UTC 2015-10-08 09:56:29

Audio
ID : 2
Format : AAC
Format/Info : Advanced Audio Codec
Format profile : LC
Codec ID : 40
Duration : 43mn 59s
Bit rate mode : Variable
Bit rate : 160 Kbps
Channel(s) : 2 channels
Channel positions : Front: L R
Sampling rate : 48.0 KHz
Compression mode : Lossy
Stream size : 50.3 MiB (5%)
Encoded date : UTC 2015-10-08 09:56:29
Tagged date : UTC 2015-10-08 09:56:29

Screenshots:

National Geographic - Queen Elephant (2014)

National Geographic - Queen Elephant (2014)

National Geographic - Queen Elephant (2014)

National Geographic - Queen Elephant (2014)


Download link:
Links are Interchangeable - Single Extraction - Premium is support resumable
Direct Download

Tags: National, Geographic, Elephant

Comments
Name:*
E-Mail:*
Add Comments:
Enter Code: *