Download Now

Arrow S04E01 (2015)

Arrow S04E01 (2015)
HDTV 720p | MKV / AVC, 2969 Kbps | 1280x720 | 42mn 27s | 1.01 GiB
English: AC3, 384 Kbps (6 ch) | Subtitles: None
Genre: Action | Adventure | Crime | Drama | Mystery | Sci-Fi

Oliver Queen and his father are lost at sea when their luxury yacht sinks, apparently in a storm. His father dies, but Oliver survives for five years on an uncharted island and eventually returns home. But he wasn't alone on the island where he learned not only how to fight and survive but also of his father's corruption and unscrupulous business dealings. He returns to civilization a changed man, determined to put things right. He disguises himself with the hood of one of his mysterious island mentors, arms himself with a bow and sets about hunting down the men and women who have corrupted his city.
General
Unique ID : 243741005009261402340192017283675143842 (0xB75ECF5D9E0B6F08B8B84C2435413EA2)
Complete name : Arrow.S04E01.720p.HDTV.X264-DIMENSION.mkv
Format : Matroska
Format version : Version 2
File size : 1.01 GiB
Duration : 42mn 27s
Overall bit rate : 3 421 Kbps
Encoded date : UTC 2015-10-07 16:06:43
Writing application : mkvmerge v3.1.0 ('Happy up here') built on Jan 19 2010 12:09:24
Writing library : libebml v0.7.9 + libmatroska v0.8.1

Video
ID : 1
Format : AVC
Format/Info : Advanced Video Codec
Format profile : [email protected]
Format settings, CABAC : Yes
Format settings, ReFrames : 8 frames
Codec ID : V_MPEG4/ISO/AVC
Duration : 42mn 27s
Bit rate : 2 969 Kbps
Width : 1 280 pixels
Height : 720 pixels
Display aspect ratio : 16:9
Frame rate mode : Constant
Frame rate : 23.976 fps
Color space : YUV
Chroma subsampling : 4:2:0
Bit depth : 8 bits
Scan type : Progressive
Bits/(Pixel*Frame) : 0.134
Stream size : 902 MiB (87%)
Writing library : x264 core 148 r2597 e86f3a1
Encoding settings : cabac=1 / ref=8 / deblock=1:-2:-2 / analyse=0x3:0x113 / me=umh / subme=9 / psy=1 / psy_rd=1.00:0.00 / mixed_ref=1 / me_range=24 / chroma_me=1 / trellis=1 / 8x8dct=1 / cqm=0 / deadzone=21,11 / fast_pskip=0 / chroma_qp_offset=-2 / threads=18 / lookahead_threads=2 / sliced_threads=0 / nr=0 / decimate=1 / interlaced=0 / bluray_compat=0 / constrained_intra=0 / bframes=5 / b_pyramid=2 / b_adapt=2 / b_bias=0 / direct=3 / weightb=1 / open_gop=0 / weightp=2 / keyint=250 / keyint_min=23 / scenecut=40 / intra_refresh=0 / rc_lookahead=50 / rc=crf / mbtree=1 / crf=18.0 / qcomp=0.60 / qpmin=0 / qpmax=69 / qpstep=4 / ip_ratio=1.40 / aq=1:1.00
Language : English
Default : No
Forced : No

Audio
ID : 2
Format : AC-3
Format/Info : Audio Coding 3
Mode extension : CM (complete main)
Format settings, Endianness : Big
Codec ID : A_AC3
Duration : 42mn 27s
Bit rate mode : Constant
Bit rate : 384 Kbps
Channel(s) : 6 channels
Channel positions : Front: L C R, Side: L R, LFE
Sampling rate : 48.0 KHz
Compression mode : Lossy
Stream size : 117 MiB (11%)
Default : Yes
Forced : No

screenshots:

Arrow S04E01 (2015)

Arrow S04E01 (2015)

Arrow S04E01 (2015)



Download link:
Links are Interchangeable - Single Extraction - Premium is support resumable
Direct Download
Comments
Name:*
E-Mail:*
Add Comments:
Enter Code: *