Download Now


ABC - Stranded (2015)
ABC - Stranded (2015)
PDTV | 718x404 | .MP4/AVC @ 1443 Kbps | 56mn 14s | Audio: English AAC 136 kbps, 2 channels | Subs: None | 637 MiB
Genre: Documentary

This film explores the unique set of circumstances in 1970s Brisbane that fostered The Saints; the sweaty rebellion of Brisbane's oppressed youth as punk counterculture challenged QLD's notorious police force.
General
Complete name : Stranded.2015.PDTV.mp4
Format : MPEG-4
Format profile : Base Media
Codec ID : isom
File size : 637 MiB
Duration : 56mn 14s
Overall bit rate mode : Variable
Overall bit rate : 1 583 Kbps

Video
ID : 1
Format : AVC
Format/Info : Advanced Video Codec
Format profile : [email protected]
Format settings, CABAC : Yes
Format settings, ReFrames : 5 frames
Codec ID : avc1
Codec ID/Info : Advanced Video Coding
Duration : 56mn 14s
Bit rate : 1 443 Kbps
Maximum bit rate : 5 950 Kbps
Width : 718 pixels
Height : 404 pixels
Display aspect ratio : 16:9
Frame rate mode : Constant
Frame rate : 25.000 fps
Color space : YUV
Chroma subsampling : 4:2:0
Bit depth : 8 bits
Scan type : Progressive
Bits/(Pixel*Frame) : 0.199
Stream size : 580 MiB (91%)
Writing library : x264 core 148 r2597 e86f3a1
Encoding settings : cabac=1 / ref=5 / deblock=1:-2:-2 / analyse=0x3:0x113 / me=umh / subme=8 / psy=1 / psy_rd=1.00:0.00 / mixed_ref=1 / me_range=16 / chroma_me=1 / trellis=1 / 8x8dct=1 / cqm=0 / deadzone=21,11 / fast_pskip=1 / chroma_qp_offset=-2 / threads=12 / lookahead_threads=2 / sliced_threads=0 / nr=0 / decimate=1 / interlaced=0 / bluray_compat=0 / constrained_intra=0 / bframes=3 / b_pyramid=2 / b_adapt=2 / b_bias=0 / direct=3 / weightb=1 / open_gop=0 / weightp=2 / keyint=250 / keyint_min=25 / scenecut=40 / intra_refresh=0 / rc_lookahead=50 / rc=crf / mbtree=1 / crf=21.0 / qcomp=0.60 / qpmin=0 / qpmax=69 / qpstep=4 / ip_ratio=1.40 / aq=1:1.00
Encoded date : UTC 2015-09-18 18:28:18
Tagged date : UTC 2015-09-18 18:28:29

Audio
ID : 2
Format : AAC
Format/Info : Advanced Audio Codec
Format profile : LC
Codec ID : 40
Duration : 56mn 14s
Bit rate mode : Variable
Bit rate : 136 Kbps
Maximum bit rate : 210 Kbps
Channel(s) : 2 channels
Channel positions : Front: L R
Sampling rate : 48.0 KHz
Compression mode : Lossy
Stream size : 54.6 MiB (9%)
Encoded date : UTC 2015-09-17 04:54:53
Tagged date : UTC 2015-09-18 18:28:29

Screenshots:

ABC - Stranded (2015)

ABC - Stranded (2015)


Download link:
Links are Interchangeable - Single Extraction - Premium is support resumable
Direct Download

Tags: Stranded

Comments
Name:*
E-Mail:*
Add Comments:
Enter Code: *