Download Now

Pacific Warriors (2015)

Pacific Warriors (2015)
WEB-DL 720p | MKV / AVC, 4004 Kbps | 1280x718 | 1h 33mn | 2.93 GiB
English: AC3, 384 Kbps (6 ch) | Subtitles: None
Genre: Documentary

The tiny Pacific Island nations of Tonga, Fiji and Samoa reconnect with their warrior heritage and take on the giants of the Rugby World Cup in this remarkable documentary uncovering the story of the greatest underdogs in professional sport. For the Pacific Islands, the game of rugby has become the modern expression of their traditional warrior spirit. During the World Cup in France, Tonga pushed the boundaries of rugby to the limit on and off the pitch, nearly resulting in the greatest ever upset in professional sport and potentially changing the game forever.
General
Unique ID : 134105933861039164967726216722925022280 (0x64E3DD06191A313590E4B2E40020EC48)
Complete name : Pacific.Warriors.2015.720p.WEB-DL.DD5.1.H.264.mkv
Format : Matroska
Format version : Version 4 / Version 2
File size : 2.93 GiB
Duration : 1h 33mn
Overall bit rate : 4 477 Kbps
Encoded date : UTC 2015-09-17 21:49:33
Writing application : mkvmerge v7.8.0 ('River Man') 64bit
Writing library : libebml v1.3.1 + libmatroska v1.4.2
DURATION : 01:33:48.864000000
NUMBER_OF_FRAMES : 175902
NUMBER_OF_BYTES : 270185472
_STATISTICS_WRITING_APP : mkvmerge v7.8.0 ('River Man') 64bit
_STATISTICS_WRITING_DATE_UT : 2015-09-17 21:49:33
_STATISTICS_TAGS : BPS DURATION NUMBER_OF_FRAMES NUMBER_OF_BYTES

Video
ID : 1
Format : AVC
Format/Info : Advanced Video Codec
Format profile : [email protected]
Format settings, CABAC : No
Format settings, ReFrames : 2 frames
Codec ID : V_MPEG4/ISO/AVC
Duration : 1h 33mn
Bit rate : 4 004 Kbps
Width : 1 280 pixels
Height : 718 pixels
Display aspect ratio : 16:9
Frame rate mode : Constant
Frame rate : 23.976 fps
Color space : YUV
Chroma subsampling : 4:2:0
Bit depth : 8 bits
Scan type : Progressive
Bits/(Pixel*Frame) : 0.182
Stream size : 2.62 GiB (89%)
Language : English
Default : Yes
Forced : No
Color range : Limited
Color primaries : BT.709
Transfer characteristics : BT.709
Matrix coefficients : BT.709

Audio
ID : 2
Format : AC-3
Format/Info : Audio Coding 3
Mode extension : CM (complete main)
Format settings, Endianness : Big
Codec ID : A_AC3
Duration : 1h 33mn
Bit rate mode : Constant
Bit rate : 384 Kbps
Channel(s) : 6 channels
Channel positions : Front: L C R, Side: L R, LFE
Sampling rate : 48.0 KHz
Compression mode : Lossy
Stream size : 258 MiB (9%)
Language : English
Default : Yes
Forced : No

Menu
00:00:00.000 : en:Chapter1
00:27:35.000 : en:Chapter2
00:57:21.000 : en:Chapter3
01:32:43.000 : en:Chapter4

screenshots:

Pacific Warriors (2015)

Pacific Warriors (2015)

Pacific Warriors (2015)


Download link:
Links are Interchangeable - Single Extraction - Premium is support resumable
Direct Download

Tags: Pacific, Warriors

Comments
Name:*
E-Mail:*
Add Comments:
Enter Code: *