Download Now


National Geographic - World's Weirdest Pets: Micro Pets (2015)
National Geographic - World's Weirdest Pets: Micro Pets (2015)
HDTV | 1280x720 | .MKV/AVC @ 2946 Kbps | 43mn 58s | Audio: English AC3 384 kbps, 6 channels | Subs: English | 1.04 GiB
Genre: Documentary

Micro Pets From pint-sized pigs to a pair of tiny naked cats, meet the world's most miniature pets and discover why the smallest animals are quite often the strangest.
General
Unique ID : 291616950646100625121981747513523080315 (0xDB6361BAA1AF8DFEE946E235F18E8C7B)
Complete name : worlds.weirdest.pets.micro.pets.mkv
Format : Matroska
Format version : Version 4 / Version 2
File size : 1.04 GiB
Duration : 43mn 58s
Overall bit rate : 3 398 Kbps

Video
ID : 1
Format : AVC
Format/Info : Advanced Video Codec
Format profile : [email protected]
Format settings, CABAC : Yes
Format settings, ReFrames : 5 frames
Codec ID : V_MPEG4/ISO/AVC
Duration : 43mn 58s
Bit rate : 2 946 Kbps
Width : 1 280 pixels
Height : 720 pixels
Display aspect ratio : 16:9
Frame rate mode : Constant
Frame rate : 25.000 fps
Color space : YUV
Chroma subsampling : 4:2:0
Bit depth : 8 bits
Scan type : Progressive
Bits/(Pixel*Frame) : 0.128
Stream size : 927 MiB (87%)
Writing library : x264 core 148 r2597 e86f3a1
Encoding settings : cabac=1 / ref=5 / deblock=1:0:0 / analyse=0x3:0x113 / me=umh / subme=9 / psy=1 / psy_rd=1.00:0.00 / mixed_ref=1 / me_range=16 / chroma_me=1 / trellis=1 / 8x8dct=1 / cqm=0 / deadzone=21,11 / fast_pskip=0 / chroma_qp_offset=-2 / threads=12 / lookahead_threads=1 / sliced_threads=0 / nr=0 / decimate=1 / interlaced=0 / bluray_compat=0 / constrained_intra=0 / bframes=3 / b_pyramid=2 / b_adapt=2 / b_bias=0 / direct=3 / weightb=1 / open_gop=0 / weightp=2 / keyint=250 / keyint_min=25 / scenecut=40 / intra_refresh=0 / rc_lookahead=50 / rc=crf / mbtree=1 / crf=20.0 / qcomp=0.60 / qpmin=0 / qpmax=69 / qpstep=4 / ip_ratio=1.40 / aq=1:1.00
Language : English
Default : Yes
Forced : No

Audio
ID : 2
Format : AC-3
Format/Info : Audio Coding 3
Mode extension : CM (complete main)
Format settings, Endianness : Big
Codec ID : A_AC3
Duration : 43mn 58s
Bit rate mode : Constant
Bit rate : 384 Kbps
Channel(s) : 6 channels
Channel positions : Front: L C R, Side: L R, LFE
Sampling rate : 48.0 KHz
Compression mode : Lossy
Stream size : 121 MiB (11%)
Default : Yes
Forced : No

Screenshots:

National Geographic - World's Weirdest Pets: Micro Pets (2015)

National Geographic - World's Weirdest Pets: Micro Pets (2015)

National Geographic - World's Weirdest Pets: Micro Pets (2015)


Download link:
Links are Interchangeable - Single Extraction - Premium is support resumable
Direct Download

Tags: National, Geographic, Weirdest

Comments
Name:*
E-Mail:*
Add Comments:
Enter Code: *