Download Now

The Possibilities Are Endless (2014)

The Possibilities Are Endless (2014)
WEB-DL 720p | MKV / AVC, 4148 Kbps | 1280x508 | 1h 23mn | 2.70 GiB
English: AC3, 384 Kbps (6 ch) | Subtitles: English
Genre: Documentary | Biography | Music

The Possibilities Are Endless tells the incredible story of Edwyn Collins, the Scottish songwriter who suffered a stroke, an explosion in the brain so severe that it effectively deleted the contents of his mind. After a career as an internationally acclaimed lyricist, he lost all language and was only able to say two phrases: "The Possibilities are Endless" and "Grace Maxwell". The film is narrated by Edwyn, trapped inside his devastated mind and his wife Grace, the woman who pulled him back to life. More than just a story of determination against all odds; it is an intimate and life-affirming journey of rediscovery that celebrates how love, music and language shape our lives.
General
Unique ID : 222565618166622385512049790911461068690 (0xA770943049B5F819ACADE7C0AB4E0F92)
Complete name : The.Possibilities.Are.Endless.2014.720p.WEB-DL.mkv
Format : Matroska
Format version : Version 4 / Version 2
File size : 2.70 GiB
Duration : 1h 23mn
Overall bit rate : 4 624 Kbps
Encoded date : UTC 2015-09-07 01:51:43
Writing application : mkvmerge v7.9.0 ('Birds') 64bit
Writing library : libebml v1.3.1 + libmatroska v1.4.2
DURATION : 01:20:23.486000000
NUMBER_OF_FRAMES : 957
NUMBER_OF_BYTES : 28408
_STATISTICS_WRITING_APP : mkvmerge v7.9.0 ('Birds') 64bit
_STATISTICS_WRITING_DATE_UT : 2015-09-07 01:51:43
_STATISTICS_TAGS : BPS DURATION NUMBER_OF_FRAMES NUMBER_OF_BYTES

Video
ID : 1
Format : AVC
Format/Info : Advanced Video Codec
Format profile : [email protected]
Format settings, CABAC : No
Format settings, ReFrames : 2 frames
Codec ID : V_MPEG4/ISO/AVC
Duration : 1h 23mn
Bit rate : 4 148 Kbps
Width : 1280 pixels
Height : 508 pixels
Display aspect ratio : 2.520
Frame rate mode : Constant
Frame rate : 25.000 fps
Color space : YUV
Chroma subsampling : 4:2:0
Bit depth : 8 bits
Scan type : Progressive
Bits/(Pixel*Frame) : 0.340
Stream size : 2.42 GiB (90%)
Language : English
Default : Yes
Forced : No
Color range : Limited
Color primaries : BT.709
Transfer characteristics : BT.709
Matrix coefficients : BT.709

Audio
ID : 2
Format : AC-3
Format/Info : Audio Coding 3
Mode extension : CM (complete main)
Format settings, Endianness : Big
Codec ID : A_AC3
Duration : 1h 23mn
Bit rate mode : Constant
Bit rate : 384 Kbps
Channel(s) : 6 channels
Channel positions : Front: L C R, Side: L R, LFE
Sampling rate : 48.0 KHz
Compression mode : Lossy
Stream size : 229 MiB (8%)
Language : English
Default : Yes
Forced : No

Text
ID : 3
Format : UTF-8
Codec ID : S_TEXT/UTF8
Codec ID/Info : UTF-8 Plain Text
Language : English
Default : Yes
Forced : No

Menu
00:00:00.000 : en:1
00:08:08.000 : en:2
00:16:10.000 : en:3
00:24:37.000 : en:4
00:32:09.000 : en:5
00:40:14.000 : en:6
00:48:40.000 : en:7
00:56:07.000 : en:8
01:04:28.000 : en:9
01:12:49.000 : en:10

screenshots:

The Possibilities Are Endless (2014)

The Possibilities Are Endless (2014)

The Possibilities Are Endless (2014)


Download link:
Links are Interchangeable - Single Extraction - Premium is support resumable
Direct Download

Tags: Possibilities, Endless

Comments
Name:*
E-Mail:*
Add Comments:
Enter Code: *