Download Now


History Channel - The Real Face of Jesus? (2010)
History Channel - The Real Face of Jesus? (2010)
HDTV | 1280x720 | .MKV/AVC @ 2515 Kbps | 1h 23mn | Audio: English AC3 384 kbps, 6 channels | Subs: English | 1.73 GiB
Genre: Documentary | History | Mystery

What did Jesus look like? Artists, scholars and millions of Christians around the world have been pondering the question for centuries. The Real Face of Jesus? follows a team of graphic experts as they use cutting-edge 3D software to bring a holy relic known as the Shroud of Turin to life. Many believe Jesus Christ was buried in this ancient linen cloth, which bears traces of blood and the faint, ghostly image of a man. With the help of modern technology, can HISTORY finally unlock the secrets of one of the world's most scrutinized and controversial artifacts? To attempt this feat, HISTORY turned to computer graphics artist Ray Downing of Studio Macbeth, who used photographs and digital animation to reconstruct Abraham Lincoln in 2009. As Ray and his team grapple with the task, we delve into the Shroud of Turin's long history, along with the many perplexing questions that centuries of scientific research have failed to settle. How, for instance, did the figure's imprint appear on the cloth? And how can we extract 3D information from a two-dimensional piece of linen?
In The Real Face of Jesus?, HISTORY unveils the fruit of many months of labor, made possible by sophisticated computer tools in very capable hands: an accurate depiction of the man many believe to be Jesus Christ. For the devout and curious alike, this is a compelling story of transformation-a fascinating journey from the realm of creativity and imagination into the domain of science and technology.

General
Unique ID : 230647091888165046740159334489107272939 (0xAD85039B188AD2E8A3B8E415CA8514EB)
Complete name : history.channel.the.real.face.of.jesus.mkv
Format : Matroska
Format version : Version 4 / Version 2
File size : 1.73 GiB
Duration : 1h 23mn
Overall bit rate : 2 958 Kbps

Video
ID : 1
Format : AVC
Format/Info : Advanced Video Codec
Format profile : [email protected]
Format settings, CABAC : Yes
Format settings, ReFrames : 5 frames
Codec ID : V_MPEG4/ISO/AVC
Duration : 1h 23mn
Bit rate : 2 515 Kbps
Width : 1 280 pixels
Height : 720 pixels
Display aspect ratio : 16:9
Frame rate mode : Constant
Frame rate : 23.976 fps
Color space : YUV
Chroma subsampling : 4:2:0
Bit depth : 8 bits
Scan type : Progressive
Bits/(Pixel*Frame) : 0.114
Stream size : 1.47 GiB (85%)
Writing library : x264 core 148 r2579 73ae2d1
Encoding settings : cabac=1 / ref=5 / deblock=1:0:0 / analyse=0x3:0x113 / me=umh / subme=8 / psy=1 / psy_rd=1.00:0.00 / mixed_ref=1 / me_range=16 / chroma_me=1 / trellis=1 / 8x8dct=1 / cqm=0 / deadzone=21,11 / fast_pskip=1 / chroma_qp_offset=-2 / threads=12 / lookahead_threads=2 / sliced_threads=0 / nr=0 / decimate=1 / interlaced=0 / bluray_compat=0 / constrained_intra=0 / bframes=3 / b_pyramid=2 / b_adapt=2 / b_bias=0 / direct=3 / weightb=1 / open_gop=0 / weightp=2 / keyint=250 / keyint_min=25 / scenecut=40 / intra_refresh=0 / rc_lookahead=50 / rc=crf / mbtree=1 / crf=20.0 / qcomp=0.60 / qpmin=0 / qpmax=69 / qpstep=4 / ip_ratio=1.40 / aq=1:1.00
Language : English
Default : Yes
Forced : No

Audio
ID : 2
Format : AC-3
Format/Info : Audio Coding 3
Mode extension : CM (complete main)
Format settings, Endianness : Big
Codec ID : A_AC3
Duration : 1h 23mn
Bit rate mode : Constant
Bit rate : 384 Kbps
Channel(s) : 6 channels
Channel positions : Front: L C R, Side: L R, LFE
Sampling rate : 48.0 KHz
Compression mode : Lossy
Stream size : 231 MiB (13%)
Language : English
Default : Yes
Forced : No

Text
ID : 3
Format : UTF-8
Codec ID : S_TEXT/UTF8
Codec ID/Info : UTF-8 Plain Text
Language : English
Default : No
Forced : No

Screenshots:

History Channel - The Real Face of Jesus? (2010)

History Channel - The Real Face of Jesus? (2010)

History Channel - The Real Face of Jesus? (2010)

History Channel - The Real Face of Jesus? (2010)


Download link:
Links are Interchangeable - Single Extraction - Premium is support resumable
Direct Download

Tags: History, Channel

Comments
Name:*
E-Mail:*
Add Comments:
Enter Code: *