Download Now

Finding Jesus - Faith Fact Forgery (2015)

Finding Jesus - Faith Fact Forgery (2015)
HDTV | 1280x720 | MKV/x264 @ 2738 Kbps | 6x42mn | Audio: English AC3 448 kbps, 6 channels | Subs: None | 6x976 MB
Genre: Documentary

Finding Jesus discovers fascinating new insights into the historical Jesus, utilizing the latest scientific techniques and archaeological research.
More info

Season 01 . Episode 01 - "The Shroud of Turin"
Exploring the possibility of a linen cloth bearing the image of a crucified man being the same shroud that Jesus was wrapped in.

Season 01 . Episode 02 - "John the Baptist"
An uncovered finger bone is believed to have belonged to John the Baptist, raising a barrage of questions about the man himself.

Season 01 . Episode 03 - "Judas"
Egyptian burial cave contains an ancient codex that may solve the riddle of Judas' infamous betrayal of Jesus.

Season 01 . Episode 04 - "Secret Brother of Jesus"

Season 01 . Episode 05 - "The True Cross"
Are pieces of the cross Jesus died on still in existence today? The incredible legend of the True Cross is investigated.

Season 01 . Episode 06 - "Mary Magdalene"
Could ancient texts preserved in the sands of Egypt shed light on the nature of Mary's relationship with Jesus?

Video
ID
: 1
Format : AVC
Format/Info

: Advanced Video Codec
Format profile : [email protected]
Format settings, CABAC : Yes
Format settings, ReFrames : 5 frames
Format settings, GOP : M=1, N=32
Codec ID : V_MPEG4/ISO/AVC
Duration : 42mn 0s
Bit rate : 2 738 Kbps
Width : 1 280 pixels
Height : 720 pixels
Display aspect ratio : 16:9
Frame rate

: 25.000 fps
Color space

: YUV
Chroma subsampling : 4:2:0
Bit depth: 8 bits
Scan type: Progressive
Bits/(Pixel*Frame) : 0.119
Stream size

: 822 MiB (84%)
Writing library : x264 core 146 r2538 121396c
Encoding settings : cabac=1 / ref=5 / deblock=1:0:0 / analyse=0x3:0x113 / me=umh / subme=8 / psy=1 / psy_rd=1.00:0.00 / mixed_ref=1 / me_range=16 / chroma_me=1 / trellis=1 / 8x8dct=1 / cqm=0 / deadzone=21,11 / fast_pskip=1 / chroma_qp_offset=-2 / threads=12 / lookahead_threads=2 / sliced_threads=0 / nr=0 / decimate=1 / interlaced=0 / bluray_compat=0 / constrained_intra=0 / bframes=3 / b_pyramid=2 / b_adapt=2 / b_bias=0 / direct=3 / weightb=1 / open_gop=0 / weightp=2 / keyint=250 / keyint_min=25 / scenecut=40 / intra_refresh=0 / rc_lookahead=50 / rc=crf / mbtree=1 / crf=21.0 / qcomp=0.60 / qpmin=0 / qpmax=69 / qpstep=4 / ip_ratio=1.40 / aq=1:1.00
Matrix coefficients : BT.709-5, BT.1361, IEC 61966-2-4 709, SMPTE RP177

Audio
ID
: 2
Format : AC-3
Format/Info

: Audio Coding 3
Mode extension : CM (complete main)
Codec ID : A_AC3
Duration : 42mn 0s
Bit rate mode : Constant
Bit rate : 448 Kbps
Channel(s)

: 6 channels
Channel positions : Front: L C R, Side: L R, LFE
Sampling rate : 48.0 KHz
Bit depth: 16 bits
Compression mode : Lossy
Stream size

: 135 MiB (14%)

Finding Jesus - Faith Fact Forgery (2015)


DOWNLOAD LINKS:
Buy Premium To Support Me & Get Resumable Support & Max Speed


Links are Interchangeable - No Password - Single Extraction
Direct Download

Tags: Finding, Forgery

Comments
Name:*
E-Mail:*
Add Comments:
Enter Code: *