Download Now

Dr. Mitchell May - The Mind Gate Empowerment Process
Dr. Mitchell May - The Mind Gate Empowerment Process
WEBRip | English | MKV + PDF Guidebook | 1920 x 1080 | AVC ~4000 kbps | 25 fps
AC-3 | 192 Kbps | 48.0 KHz | 2 channels | 00:58:18 | 1.78 GB
Genre: eLearning Video / Psychology, Self Improvement

This book will change your life by giving you the tools to harness the awesome power of the subconscious mind! This is not just some self-hypnosis book about how to improve your golf game or your sex life but is a practical, hard-hitting, no-nonsense process to tap into the power that creates the planets and solar systems. Every bad experience you have ever had has been the result of choices you made subconsciously, but were never aware of it or were rarely aware of it.
Dr. Mitchell Mays guides you step-by-step into the control room of your subconscious mind and then hands you the keys to the most awesome reality-creating machine known to man-the law of attraction! The Mind Gate Process of Empowerment is a breakthrough in transformation technology. "Dr. Mays' riveting stories illustrate how slipping into unwanted trance states can generate overwhelming and unwanted consequences. Through the simple, yet effective Mind Gate Process he invites the reader to awaken from the pervasive trance of anxiety, disempowerment and fear into a state of personal power, health, and abundance". -Donna Hamilton, Ph.D., M.F.T., Co-founder New Vistas International "This is the kind of book you'll want to give to all your friends and family-or anyone that you want to see break free from their limiting beliefs and expectations". -Kari Boss, entrepreneur Learn the secrets that lie just beyond The Mind Gate.
also You can look my other last:


General
Unique ID : Dr. Mitchell Mays.mkv
Format : Matroska
Format version : Version 4 / Version 2
File size : 1.78 GiB
Duration : 58mn 18s
Overall bit rate : 4 376 Kbps
Writing application : Lavf56.36.100
Writing library : Lavf56.36.100
Video
ID : 1
Format : AVC
Format/Info : Advanced Video Codec
Format profile : BaselineL1.3
Format settings, CABAC : No
Format settings, ReFrames : 2 frames
Codec ID : V_MPEG4/ISO/AVC
Duration : 58mn 18s
Bit rate : 4 000 Kbps
Width : 1 920 pixels
Height : 1 080 pixels
Display aspect ratio : 16:9
Frame rate mode : Constant
Frame rate : 25.000 fps
Color space : YUV
Chroma subsampling : 4:2:0
Bit depth : 8 bits
Scan type : Progressive
Bits/(Pixel*Frame) : 0.077
Stream size : 1.67 GiB (94%)
Writing library : x264 core 148 r2579 73ae2d1
Encoding settings : cabac=0 / ref=2 / deblock=1:0:0 / analyse=0x1:0x111 / me=umh / subme=6 / psy=1 / psy_rd=1.00:0.00 / mixed_ref=1 / me_range=16 / chroma_me=1 / trellis=0 / 8x8dct=0 / cqm=0 / deadzone=21,11 / fast_pskip=1 / chroma_qp_offset=-2 / threads=6 / lookahead_threads=1 / sliced_threads=0 / nr=0 / decimate=1 / interlaced=0 / bluray_compat=0 / constrained_intra=0 / bframes=0 / weightp=0 / keyint=250 / keyint_min=25 / scenecut=40 / intra_refresh=0 / rc_lookahead=40 / rc=abr / mbtree=1 / bitrate=4000 / ratetol=1.0 / qcomp=0.60 / qpmin=0 / qpmax=69 / qpstep=4 / ip_ratio=1.40 / aq=1:1.00
Default : Yes
Forced : No
Encoded date : UTC 2014-05-13 17:03:14
HANDLER_NAME : L-SMASH Video Handler
Audio
ID : 2
Format : AC-3
Format/Info : Audio Coding 3
Mode extension : CM (complete main)
Format settings, Endianness : Big
Codec ID : A_AC3
Duration : 58mn 18s
Bit rate mode : Constant
Bit rate : 192 Kbps
Channel(s) : 2 channels
Channel positions : Front: L R
Sampling rate : 48.0 KHz
Bit depth : 16 bits
Compression mode : Lossy
Delay relative to video : -5ms
Stream size : 80.1 MiB (4%)
Writing library : Lavc56.41.100 ac3
Default : Yes
Forced : No
Encoded date : UTC 2014-05-13 17:03:14
HANDLER_NAME : L-SMASH Audio Handler


Dr. Mitchell May - The Mind Gate Empowerment Process

Download link:
Links are Interchangeable - Single Extraction - Premium is support resumable
Direct Download

Tags: Mitchell, Empowerment, Process

Comments
Name:*
E-Mail:*
Add Comments:
Enter Code: *