Download Now

The Essence of Stability Ball Training Vol 1 & Vol 2
The Essence of Stability Ball Training Vol 1 & Vol 2
2xDVDRip | English | AVI | 576 x 432 | XviD ~1695 kbps | 25 fps
MP3 | 128 Kbps | 48.0 KHz | 2 channels | 01:29:01 | 1.19 GB
Genre: eLearning Video / Fitness, Health

The Essence of Stability Ball Training, Vols. 1 - Chest, Shoulders, Back and Balance Training.provides you with the most comprehensive collection of stability ball exercises ever assembled. The Essence of Stability Ball Training, Vols. II provides you with the most comprehensive collection of stability ball exercises ever assembled for Legs, Hip & Core.
Volume 1:
The Essence of Stability Ball Training, Vols. I provides you with the most comprehensive collection of stability ball exercises ever assembled. This DVD cover bodyweight as well as external resistance exercises for Chest, Shoulders, Back & Balance Tranining. Exercises are illustrated by body parts and in order of difficulty from the easiest to the most complex. Volume I takes you through the complete progression spectrum for the entire upper body as well as through an introduction to Stabilization Limited Training (SLT). This DVD gives your chest, shoulders, back, and balance training a new look and feel.
Volume 2:
Volume II provides you with a comprehensive collection of stability ball exercises through complete progression spectrums for the legs, hips, and core as well as provides an introduction to Stabilization Limited Training (SLT).
Juan Carlos Santana - one of the most popular, best-selling authority on functional training and improving the physical form of man. He is President of the Insititute of Human Performance in Boca Raton (Florida) and is known around the world for innovation workshops, scientific approach to training and a simple, affordable and fun submission of taught material. Santana has published a dozen bestsellers - books and movies with the power and exercise for professionalov.
Nikto not know about training with fitball than Juan Carlos Santana! The Essence of Stability Ball Training in two parts presents to you the most complete, comprehensive information - a collection of exercises with fitball exercises.
Video covers how to exercise their own weight, and with the external resistor. Exercises are shown in different parts of the body in order of difficulty from simple to difficult. The first part of The Essence of Stability Ball Training, as well as in the introduction Introduction to Stabilization Limited Training (SLT) is a complete series of exercises to improve the back and top of tela.Uprazhneniya shown in the first part, will give your chest, shoulders, back, completely different look! The second part of The Essence of Stability Ball focused on the lower body - legs, thighs and abdominal muscles. These exercises will help to change the mood, improve balance and coordination. Perfect separation program will provide great ideas for training and comprehensive exercises zanyatiyah.Obschie segments Intro-mini, Warm Up and Stretch removed from the selected folder to the general. Selecting training, add the appropriate folder are two files (Warm Up and Stretch) and start with a Warm Up, if you have already studied the introduction and tutorial. Not only that, I would say at the end of training and re-run Stretch run it as the final stage of training.
also You can look my other last:


General
Complete name : Essence of Stabilty Ball Training_05 Chest.avi
Format : AVI
Format/Info : Audio Video Interleave
File size : 139 MiB
Duration : 10mn 36s
Overall bit rate : 1 832 Kbps
Movie name : E
Writing application : F
Copyright : O
Video
ID : 0
Format : MPEG-4 Visual
Format profile : Advanced SimpleL5
Format settings, BVOP : 1
Format settings, QPel : No
Format settings, GMC : No warppoints
Format settings, Matrix : Custom
Codec ID : XVID
Codec ID/Hint : XviD
Duration : 10mn 36s
Bit rate : 1 695 Kbps
Width : 576 pixels
Height : 432 pixels
Display aspect ratio : 4:3
Frame rate : 25.000 fps
Color space : YUV
Chroma subsampling : 4:2:0
Bit depth : 8 bits
Scan type : Progressive
Compression mode : Lossy
Bits/(Pixel*Frame) : 0.272
Stream size : 129 MiB (92%)
Writing library : XviD 64
Audio
ID : 1
Format : MPEG Audio
Format version : Version 1
Format profile : Layer 3
Mode : Joint stereo
Mode extension : MS Stereo
Codec ID : 55
Codec ID/Hint : MP3
Duration : 10mn 36s
Bit rate mode : Constant
Bit rate : 128 Kbps
Channel(s) : 2 channels
Sampling rate : 48.0 KHz
Compression mode : Lossy
Delay relative to video : 16ms
Stream size : 9.71 MiB (7%)
Alignment : Split accross interleaves
Interleave, duration : 40 ms (1.00 video frame)
Interleave, preload duration : 500 ms


The Essence of Stability Ball Training Vol 1 & Vol 2

Download link:
Links are Interchangeable - Single Extraction - Premium is support resumable
Direct Download

Tags: Essence, Stability, Training

Comments
Name:*
E-Mail:*
Add Comments:
Enter Code: *