Download Now

http://s2.1pic.org/files/2016/09/15/1ac0d17b717395e5f30a.jpg

DayGame - The Girlfriend Sequence Program
WEBRip | MP4 | English | 640 x 360 | AVC ~597 kbps | 23.976 fps
AAC ~109 Kbps | 48.0 KHz | 2 channels | 06:26:35 | 1.91 GB
Genre: eLearning Video / Dating, Relationships, Sex, Psychology

The Girlfriend Sequence program is a training produced from the original seminar that took place in London in January 2013. The program was conceived by Tom Torero to help men with getting an awesome relationships via a step by step process.
You can view the 4 launch videos giving the background on the course's development here:
*#1 Lost Girls (6th September 2013): Andy Yosha's story of missed opportunities with girls he could've had as girlfriends.
*#2 Unlikely Hero (7th September 2013): Tom Torero's story of missed opportunities with women and creating the girlfriend
sequence over 230 dates. You see the places where Tom first started taking women on dates and his favorite spot, and he then
gives you 3 bits of advice from the Girlfriend Sequence.
*#3 Getting My Dream Girl (8th September 2013): Any goes to Slovenia to talk to one of the original students from the Girlfriend
Sequence seminar (Diam from Copra, Slovenia Slovenia). Diam talks about his situation before the program and how the
Girlfriend Sequence helped him to get better results and his dream girl.
*#4 The Girlfriend Sequence Revealed (9th September 2013):

Table of Contents/ List of Topics Covered:
- The first bubble of the girlfriend sequence - Text Bubble 1 (the false choice text) used to get girls to go on dates with you.
- Why not to bring girl back to your place after the first date.
- Why you have a window of opportunity and can't take her on too many dates (with the number of dates that are ideal).
- Best places to take girls on first dates.
- What not to do when first sitting down with a girl on a date.
- How to get her to open up and relax around you (comfort bubbles).
- etc.

The full video product also gives answers to meeting and attracting women
during the day ("daygame") and how to have multiple relationships, if
that's something you're interested in.

General
Complete name : GFS 28 - The GirlfriendSequence- Initiating Intimacy.mp4
Format : MPEG-4
Format profile : Base Media / Version 2
Codec ID : mp42
File size : 141 MiB
Duration : 27mn 41s
Overall bit rate mode : Variable
Overall bit rate : 710 Kbps
Encoded date : UTC 2013-08-19 19:42:44
Tagged date : UTC 2013-08-19 19:42:44

Video
ID : 1
Format : AVC
Format/Info : Advanced Video Codec
Format profile : [email protected]
Format settings, CABAC : Yes
Format settings, ReFrames : 4 frames
Codec ID : avc1
Codec ID/Info : Advanced Video Coding
Duration : 27mn 41s
Bit rate : 597 Kbps
Width : 640 pixels
Height : 360 pixels
Display aspect ratio : 16:9
Frame rate mode : Constant
Frame rate : 23.976 fps
Color space : YUV
Chroma subsampling : 4:2:0
Bit depth : 8 bits
Scan type : Progressive
Bits/(Pixel*Frame) : 0.108
Stream size : 118 MiB (84%)
Writing library : x264 core 129 r2245 bc13772
Encoding settings : cabac=1 / ref=3 / deblock=1:0:0 / analyse=0x3:0x113 / me=hex / subme=7 / psy=1 / psy_rd=1.00:0.00 / mixed_ref=1 / me_range=16 / chroma_me=1 / trellis=1 / 8x8dct=1 / cqm=0 / deadzone=21,11 / fast_pskip=1 / chroma_qp_offset=-2 / threads=12 / lookahead_threads=2 / sliced_threads=0 / nr=0 / decimate=1 / interlaced=0 / bluray_compat=0 / constrained_intra=0 / bframes=3 / b_pyramid=2 / b_adapt=1 / b_bias=0 / direct=1 / weightb=1 / open_gop=0 / weightp=2 / keyint=72 / keyint_min=24 / scenecut=40 / intra_refresh=0 / rc_lookahead=40 / rc=2pass / mbtree=1 / bitrate=597 / ratetol=1.0 / qcomp=0.60 / qpmin=5 / qpmax=69 / qpstep=4 / cplxblur=20.0 / qblur=0.5 / vbv_maxrate=1125 / vbv_bufsize=3750 / nal_hrd=none / ip_ratio=1.40 / aq=1:1.00
Encoded date : UTC 2013-08-19 19:42:44
Tagged date : UTC 2013-08-19 19:42:44

Audio
ID : 2
Format : AAC
Format/Info : Advanced Audio Codec
Format profile : LC
Codec ID : 40
Duration : 27mn 41s
Source duration : 27mn 41s
Bit rate mode : Variable
Bit rate : 109 Kbps
Channel(s) : 2 channels
Channel positions : Front: L R
Sampling rate : 48.0 KHz
Compression mode : Lossy
Delay relative to video : 40ms
Stream size : 21.7 MiB (15%)
Source stream size : 21.7 MiB (15%)
Encoded date : UTC 2013-08-19 19:42:44
Tagged date : UTC 2013-08-19 19:42:44

Screenshots

http://s2.1pic.org/files/2016/09/15/91092caa1374be2c78c5.jpg

Download link:


Links are Interchangeable - No Password - Single Extraction
Direct Download

Tags: DayGame, Girlfriend, Sequence, Program, reduced

Comments
Name:*
E-Mail:*
Add Comments:
Enter Code: *