Download Now

Napoleon Hill  The Master Key to Success [repost]
Napoleon Hill: The Master Key to Success
4xVHSRip | English | AVI | 400 x 304 | XviD ~852 kbps | 29.970 fps
MP3 | 107 Kbps | 48.0 KHz | 2 channels | 02:42:42 | 1.36 GB
The quality of the avi's are a perfect master from the vhs tapes however the quality featured in the course are from the 50's and leave a little to be desired. Having said that, they feature Napoleon Hill and if you've never seen him speak in an archival sense, now's your chance. This is an excellent program which will bring you back to the roots of the self-help movement. W. Clement Stone's intermittent apprearances are interesting as they feature him from the early 1990's when the course was produced...

Whether you are striving f achievement in your career personal life, Napoleon Hill and W. Clement Stone share the universal philosophies that lead you directly to the source of all life's riches.
Developed from rare archival film footage from the 1950's, this powerful video course explains a success system that is virtually failproof! In 13 dynamic sessions, Dr. Hill will show you how you can use the principles of success he discovered by analyzing the success of me than 500 of the 20th century's greatest achievers.
Each of the 13 sessions is introduced by wld-renowned multimillionaire, W.Clement Stone, who was Dr. Hill's general manager and a close personal friend. Now these secrets of success are passed on to you. This video course shows you how to achieve all your goals with lifechanging consistency.
Perhaps no person in histy has influenced the success of me individuals than Napoleon Hill. He was asked by the steel magnate Andrew Carnegie to ganize the wld's first philosophy of individual achievement. The project, based on the success principles of Carnegie and other great achievers of the time, took 20 years to complete. Hill wrote several books based on his research, including the classics Think and Grow Rich, The Science of Personal Achievement and Success Through a Positive Mental Attitude, the latter co-authed with W.Clement Stone. All are available on audiocassette from
Much me than an insurance magnate, W.Clement Stone is a philanthropist, a civic leader, an auth and publisher and a 1981 Nobel Peace Prize nominee. He is known to high achievers everywhere as the father of PMA (Positive Mental Attitude), a philosophy he has carried to millions through self-help books,
audio and video recdings and magazine articles. Greatly influenced as a young man by Napoleon Hill, Stone has achieved one stunning success after another.
Definiteness of Purpose; The Mastermind Principle; Going the Extra Mile; Applied Faith
A Pleasing Personality; Self-Discipline; A Positive Mental Attitude
Enthusiasm; Personal Initiative; Learning from Adversity
Creative Vision; Accurate Thinking; The Law of Cosmic Habit fce
Complete name : 1 The Master Key.avi
Fmat : AVI
Fmat/Info : Audio Video Interleave
File size : 349 MiB
Duration : 50mn 12s
Overall bit rate mode : Variable
Overall bit rate : 973 Kbps
Writing application : VirtualDubMod (build 2178/release)
Writing library : VirtualDubMod build 2178/release
ID : 0
Fmat : MPEG-4 Visual
Fmat profile : Advanced [email protected]
Fmat settings, BVOP : 1
Fmat settings, QPel : No
Fmat settings, GMC : No warppoints
Fmat settings, Matrix : Custom
Codec ID : XVID
Codec ID/Hint : XviD
Duration : 50mn 12s
Bit rate : 852 Kbps
Width : 400 pixels
Height : 304 pixels
Display aspect ratio : 4:3
Frame rate : 29.970 fps
Col space : YUV
Chroma subsampling : 4:2:0
Bit depth : 8 bits
Scan type : Progressive
Compression mode : Lossy
Bits/(Pixel*Frame) : 0.234
Stream size : 306 MiB (88%)
Writing library : XviD 1.2.0.dev47 (UTC 2006-11-01)
ID : 1
Fmat : MPEG Audio
Fmat version : Version 1
Fmat profile : Layer 3
Mode : Joint stereo
Mode extension : MS Stereo
Codec ID : 55
Codec ID/Hint : MP3
Duration : 50mn 11s
Bit rate mode : Variable
Bit rate : 107 Kbps
Nominal bit rate : 128 Kbps
Channel(s) : 2 channels
Sampling rate : 48.0 KHz
Compression mode : Lossy
Stream size : 38.5 MiB (11%)
Alignment : Aligned on interleaves
Interleave, duration : 24 ms (0.72 video frame)
Interleave, preload duration : 504 ms
Writing library : LAME3.97
Encoding settings : -m j -V 4 -q 2 -lowpass 17 -abr 128
Napoleon Hill  The Master Key to Success [repost]
Napoleon Hill  The Master Key to Success [repost]
Napoleon Hill  The Master Key to Success [repost]
Napoleon Hill  The Master Key to Success [repost]

I recommends Buy premimum account for High speed+parallel downloads!


Direct Download

Tags: Napoleon, Master, Success, repost

Add Comments:
Enter Code: *