Download Now

ADSR Sounds-Top 15 Mistakes Producers Make (2016)
ADSR Sounds-Top 15 Mistakes Producers Make
WEBRip | English | MP4 | 1280 x 720 | AVC ~2590 kbps | 29.970 fps
AAC | 58.3 Kbps | 44.1 KHz | 2 channels | 03:54:59 | 4.45 GB
Genre: Video Tutorial / Sound Processing


We asked Echo Sound Works to go back in time and give his greener self THE ULTIMATE PEP TALK. The result, is a compilation of all the things experienced producers wish they had known when they were starting out-all you have to do is watch, listen and learn.
Seize this opportunity to learn from the mistakes of Echo Sound Works and thousands of professional producers as we explore the Top 15 Mistakes Producers Make.

At just under 4 hours, this course isn't your ordinary throw away ‘top ten list' reminding you to cut out the lows or put reverb on an aux send. These are the kind of mistakes that have plateaued your production abilities and musical creativity; these are the issues that are holding back your career.

Over the course of 19 video lessons-you'll explore the pitfalls, the insights and the learnings to solve common issues that you can and will come up against at some point in your production career.

235 Minutes of professional video instruction
19 indepth videos giving you insight and advice on different production related mistakes
Fresh ideas and techniques suitable for any style or genre of music
Learn at your own pace, watch as many times as you need to learn the lessons
Download now or subscribe and stream hundreds of course videos

Over the course of 4 hours you will break down the skills, knowledge and techniques you need to overcome challenges and improve your production game

Content:

01 Introduction
02 Underestimating acoustical treatment
03 Failing to set up the right routine
04 Keeping a routine
05 Organisation
06 Trying to do everything
07 Unrealistic expectations
08 Thinking everything you do is great
09 Overthinking
10 Not understanding your target audience
11 Having bad taste
12 Keeping up with the Jones
13 Mixing at loud volumes
14 Using too much stereo widening
15 Soloing tracks when mixing
16 Mixing drums from one track
17 Not mixing into a compressor
18 Gear envy
19 Not having purpose

   MediaInfo:            GeneralComplete name                            : 10 Not understanding your target audience.mp4Format                                   : MPEG-4Format profile                           : Base MediaCodec ID                                 : isomFile size                                : 75.5 MiBDuration                                 : 3mn 58sOverall bit rate mode                    : VariableOverall bit rate                         : 2 657 KbpsEncoded date                             : UTC 2016-08-08 23:28:47Tagged date                              : UTC 2016-08-08 23:28:47Writing application                      : vlc 2.2.4 stream outputComment                                  : QuickTime 6.0 or greaterVideoID                                       : 2Format                                   : AVCFormat/Info                              : Advanced Video CodecFormat profile                           : [email protected] settings, CABAC                   : NoFormat settings, ReFrames                : 3 framesFormat settings, GOP                     : M=1, N=100Codec ID                                 : avc1Codec ID/Info                            : Advanced Video CodingDuration                                 : 3mn 58sBit rate                                 : 2 590 KbpsWidth                                    : 1 280 pixelsHeight                                   : 720 pixelsDisplay aspect ratio                     : 16:9Frame rate mode                          : VariableFrame rate                               : 29.970 fpsMinimum frame rate                       : 29.412 fpsMaximum frame rate                       : 30.303 fpsColor space                              : YUVChroma subsampling                       : 4:2:0Bit depth                                : 8 bitsScan type                                : ProgressiveBits/(Pixel*Frame)                       : 0.094Stream size                              : 73.6 MiB (97%)Writing library                          : Zencoder Video Encoding SystemLanguage                                 : EnglishEncoded date                             : UTC 2016-08-08 23:28:47Tagged date                              : UTC 2016-08-08 23:28:47Color primaries                          : BT.709Transfer characteristics                 : BT.709Matrix coefficients                      : BT.709AudioID                                                                                                                                                                                                                                                                           : 1Format                                   : AACFormat/Info                              : Advanced Audio CodecFormat profile                           : LCCodec ID                                 : 40Duration                                 : 3mn 58sSource duration                          : 3mn 58sBit rate mode                            : VariableBit rate                                 : 58.3 KbpsMaximum bit rate                         : 121 KbpsChannel(s)                               : 2 channelsChannel positions                        : Front: L RSampling rate                            : 44.1 KHzCompression mode                         : LossyStream size                              : 1.66 MiB (2%)Source stream size                       : 1.66 MiB (2%)Language                                 : EnglishEncoded date                             : UTC 2016-08-08 23:28:47Tagged date                              : UTC 2016-08-08 23:28:47mdhd_Duration                            : 238468


Screenshots

ADSR Sounds-Top 15 Mistakes Producers Make (2016)


ADSR Sounds-Top 15 Mistakes Producers Make (2016)


ADSR Sounds-Top 15 Mistakes Producers Make (2016)


ADSR Sounds-Top 15 Mistakes Producers Make (2016)



DOWNLOAD LINKS:

Download from Rapidgator.net
http://rapidgator.net/file/af0df56ad12cf587ea6e59191512b6ff/8fvuc.ADSR.ST.15.M.P.M.2016.part1.rar.html
http://rapidgator.net/file/f253c4f6277d077de3c7c3c070d5d17a/8fvuc.ADSR.ST.15.M.P.M.2016.part2.rar.html
http://rapidgator.net/file/8b6837bf06d077eec7f9071dad0312c8/8fvuc.ADSR.ST.15.M.P.M.2016.part3.rar.html
http://rapidgator.net/file/59af7c922a72891bb2bc6b67418bece2/8fvuc.ADSR.ST.15.M.P.M.2016.part4.rar.html
http://rapidgator.net/file/3238484ed367110670ec0ea339cbdf7f/8fvuc.ADSR.ST.15.M.P.M.2016.part5.rar.html
http://rapidgator.net/file/8e0fefa1fc16b128854aee2c76790bf5/8fvuc.ADSR.ST.15.M.P.M.2016.part6.rar.html

Download from Nitroflare.com
http://nitroflare.com/view/4054B4217612535/8fvuc.ADSR.ST.15.M.P.M.2016.part1.rar
http://nitroflare.com/view/DB03E52B31C8BAD/8fvuc.ADSR.ST.15.M.P.M.2016.part2.rar
http://nitroflare.com/view/1B8E15C446B52D7/8fvuc.ADSR.ST.15.M.P.M.2016.part3.rar
http://nitroflare.com/view/8246B6117D956EC/8fvuc.ADSR.ST.15.M.P.M.2016.part4.rar
http://nitroflare.com/view/28F8E1B27A13C35/8fvuc.ADSR.ST.15.M.P.M.2016.part5.rar
http://nitroflare.com/view/992978A246C0F89/8fvuc.ADSR.ST.15.M.P.M.2016.part6.rar

Download from Turbobit.net
http://turbobit.net/559myzvg7dig/8fvuc.ADSR.ST.15.M.P.M.2016.part1.rar.html
http://turbobit.net/i881x3yo9hqn/8fvuc.ADSR.ST.15.M.P.M.2016.part2.rar.html
http://turbobit.net/v6atpvbdd2gm/8fvuc.ADSR.ST.15.M.P.M.2016.part3.rar.html
http://turbobit.net/8a2tu5yth6ki/8fvuc.ADSR.ST.15.M.P.M.2016.part4.rar.html
http://turbobit.net/cd5mfhn7jq05/8fvuc.ADSR.ST.15.M.P.M.2016.part5.rar.html
http://turbobit.net/8vlk1u0h8yqd/8fvuc.ADSR.ST.15.M.P.M.2016.part6.rar.html

Direct Download

Tags: Sounds, Mistakes, Producers

Comments
Name:*
E-Mail:*
Add Comments:
Enter Code: *