Download Now



This is the full video of my talk at the 21 Convention in Melbourne. I had a lot of fun meeting some wonderful people, including the organiser, Anthony Johnson, and the MC, Steve Mayeda, as well as many others. A big "Thank You" to Anthony, Steve, and the team for their gracious invitation! This is the outline I gave out as a hand-out. It should come in handy as you watch the video.


Demolish Your Deepest Insecurities Using Honesty: Top Dating Coach David Tian at the 21 Convention

OUTLINE

1. Inner

Psychological Archaeology

* Use R&R (Reflection and Reframing) to overcome Limiting Beliefs (LB)

* LB => True or False

* If False, then Reflect, Research, and Condition

* If True, then can you change it? Yes or No?

* If Yes, change it!

* If No, then Reframe, Research, and Condition

2. Outer

A=S+H

Being Attractive = Emotional Strength + Honest

-Cyclical Process of a) becoming strong and b) expressing yourself honestly

-Former accomplished through repeated attempts at the latter

"Being yourself " requires that you first "know yourself "

Honesty is necessary for.

a) Coming to terms with all your current weaknesses

b) Discovering and deciding who you really want to be

-You feel inside when something's off

-Genuine "Game"

Know Thyself => What emotions are you feeling and why?

-Be comfortable and content with your flaws

-Admit to yourself and others

Emotion = Judgement/Thought/Belief/Interpretation + Phenomenology

Best,David

MediaInfo:


General
Complete name : C:\Users\ParRus\Downloads\David Tian _ How to Demolish Your Deepest Insecurities-G_P\test\David Tian _ How to Demolish Your Deepest Insecurities\David Tian _ How to Demolish Your Deepest Insecurities_(new).avi
Format : AVI
Format/Info : Audio Video Interleave
Format profile : OpenDML
File size : 1.04 GiB
Duration : 1h 7mn
Overall bit rate : 2 203 Kbps
Writing application : Lavf54.29.104

Video
ID : 0
Format : MPEG-4 Visual
Format profile : [email protected]
Format settings, BVOP : No
Format settings, QPel : No
Format settings, GMC : No warppoints
Format settings, Matrix : Default (H.263)
Codec ID : FMP4
Duration : 1h 7mn
Bit rate : 2 059 Kbps
Width : 1 280 pixels
Height : 720 pixels
Display aspect ratio : 16:9
Frame rate : 23.976 fps
Color space : YUV
Chroma subsampling : 4:2:0
Bit depth : 8 bits
Scan type : Progressive
Compression mode : Lossy
Bits/(Pixel*Frame) : 0.093
Stream size : 999 MiB (93%)
Writing library : Lavc54.59.100

Audio
ID : 1
Format : MPEG Audio
Format version : Version 1
Format profile : Layer 3
Codec ID : 55
Codec ID/Hint : MP3
Duration : 1h 7mn
Bit rate mode : Constant
Bit rate : 128 Kbps
Channel(s) : 1 channel
Sampling rate : 44.1 KHz
Compression mode : Lossy
Stream size : 62.1 MiB (6%)
Alignment : Aligned on interleaves
Interleave, duration : 26 ms (0.63 video frame)
Writing library : LAME3.99.3
Download link:

rapidgator_net:
http://rapidgator.net/file/3373bd9e8764240e7372cea25e8f6337/bijwo.David.Tian..How.to.Demolish.Your.Deepest.Insecurities.Using.Honesty.2016.part1.rar.html
http://rapidgator.net/file/9d36b1b90804de907e0acdd0dbfd6df5/bijwo.David.Tian..How.to.Demolish.Your.Deepest.Insecurities.Using.Honesty.2016.part2.rar.html
http://rapidgator.net/file/2fa49b978c55a23ae5d6591ce1231dd4/bijwo.David.Tian..How.to.Demolish.Your.Deepest.Insecurities.Using.Honesty.2016.part3.rar.html
http://rapidgator.net/file/af0023e29ac90283d36c09b279cb58f9/bijwo.David.Tian..How.to.Demolish.Your.Deepest.Insecurities.Using.Honesty.2016.part4.rar.html
http://rapidgator.net/file/484e47ff8d83830a81b76fc7d9bfe6c6/bijwo.David.Tian..How.to.Demolish.Your.Deepest.Insecurities.Using.Honesty.2016.part5.rar.html
http://rapidgator.net/file/7c7acd47611d8c2cfbf5efa526fe3bdb/bijwo.David.Tian..How.to.Demolish.Your.Deepest.Insecurities.Using.Honesty.2016.part6.rar.html

uploaded_net:
http://uploaded.net/file/x8vz1yal/bijwo.David.Tian..How.to.Demolish.Your.Deepest.Insecurities.Using.Honesty.2016.part1.rar
http://uploaded.net/file/us8w0905/bijwo.David.Tian..How.to.Demolish.Your.Deepest.Insecurities.Using.Honesty.2016.part2.rar
http://uploaded.net/file/urou0u4e/bijwo.David.Tian..How.to.Demolish.Your.Deepest.Insecurities.Using.Honesty.2016.part3.rar
http://uploaded.net/file/aq71td3g/bijwo.David.Tian..How.to.Demolish.Your.Deepest.Insecurities.Using.Honesty.2016.part4.rar
http://uploaded.net/file/ucs8o07v/bijwo.David.Tian..How.to.Demolish.Your.Deepest.Insecurities.Using.Honesty.2016.part5.rar
http://uploaded.net/file/4bvh08yz/bijwo.David.Tian..How.to.Demolish.Your.Deepest.Insecurities.Using.Honesty.2016.part6.rar

nitroflare_com:
http://nitroflare.com/view/81A491DB3498204/bijwo.David.Tian..How.to.Demolish.Your.Deepest.Insecurities.Using.Honesty.2016.part1.rar
http://nitroflare.com/view/2644478D3087729/bijwo.David.Tian..How.to.Demolish.Your.Deepest.Insecurities.Using.Honesty.2016.part2.rar
http://nitroflare.com/view/13E7AA80054630D/bijwo.David.Tian..How.to.Demolish.Your.Deepest.Insecurities.Using.Honesty.2016.part3.rar
http://nitroflare.com/view/7C5096A67F6517D/bijwo.David.Tian..How.to.Demolish.Your.Deepest.Insecurities.Using.Honesty.2016.part4.rar
http://nitroflare.com/view/6A8424E4B63F169/bijwo.David.Tian..How.to.Demolish.Your.Deepest.Insecurities.Using.Honesty.2016.part5.rar
http://nitroflare.com/view/24ABA7336810D28/bijwo.David.Tian..How.to.Demolish.Your.Deepest.Insecurities.Using.Honesty.2016.part6.rar
Direct Download

Tags: Demolish, Deepest, Insecurities, Honesty

Comments
Name:*
E-Mail:*
Add Comments:
Enter Code: *