Download Now

BRICKFORM - Coloured Concrete Construction Source
BRICKFORM - Coloured Concrete Construction Source
DVD5 | English | VIDEO_TS | 704 x 480 | MPEG2 ~242 Kbps | 29.970 fps
AC-3 | 256 Kbps | 48.0 KHz | 2 channels | 40 minunes | 1.32 GB



"In this film shows the process in detail pouring colored concrete surfaces. New technology firms BRICKFORM manufactured using its material and equipment. Create great textured concrete surfaces using BRICKFORM texture rugs and accessories. It is intended to create the appearance of natural materials, BRICKFORM offers the widest range of textures to turn into concrete masterpiece."

General
Complete name : VTS_01_1.VOB
Format
: MPEG-PS
File size
: 1 023 MiB
Duration
: 34s 747ms
Overall bit rate mode : Variable
Overall bit rate : 247 Mbps
Video
ID : 224 (0xE0)
Format
: MPEG Video
Format version : Version 2
Format profile : [email protected]
Format settings, BVOP : Yes
Format settings, Matrix : Default
Format settings, GOP : M=3, N=15
Duration
: 34s 747ms
Bit rate mode : Variable
Bit rate
: 242 Mbps
Maximum bit rate : 9 558 Kbps
Width
: 704 pixels
Height
: 480 pixels
Display aspect ratio : 4:3
Frame rate
: 29.970 fps
Standard
: NTSC
Color space
: YUV
Chroma subsampling
: 4:2:0
Bit depth
: 8 bits
Scan type
: Interlaced
Scan order
: Top Field First
Compression mode : Lossy
Bits/(Pixel*Frame)
: 23.886
Stream size
: 1 002 MiB (98%)
Color primaries : SMPTE 170M
Transfer characteristics : SMPTE 170M
Matrix coefficients
: SMPTE 170M
Audio
ID : 189 (0xBD)-128 (0x80)
Format
: AC-3
Format/Info
: Audio Coding 3
Mode extension : CM (complete main)
Muxing mode
: DVD-Video
Duration
: 15s 241ms
Bit rate mode : Constant
Bit rate
: 256 Kbps
Channel(s)
: 2 channels
Channel positions: Front: L R
Sampling rate : 48.0 KHz
Bit depth
: 16 bits
Compression mode : Lossy
Delay relative to video : -67ms
Stream size
: 476 KiB (0%)
Menu

Screenshots
BRICKFORM - Coloured Concrete Construction Source
BRICKFORM - Coloured Concrete Construction Source
BRICKFORM - Coloured Concrete Construction Source
BRICKFORM - Coloured Concrete Construction Source
BRICKFORM - Coloured Concrete Construction Source

I recommends Buy premimum account for High speed+parallel downloads!

Rapidgator


Nitroflare


uploaded

Direct Download

Tags: BRICKFORM, Coloured, Concrete, Construction, Source

Comments
Name:*
E-Mail:*
Add Comments:
Enter Code: *