Download Now

The Ultimate Beginners Guide To Underwater Photography!

The Ultimate Beginners Guide To Underwater Photography!
WEBRip | English | MP4 | 1280 x 720 | AVC ~2501 kbps | 30 fps
AAC ~124 Kbps | 48.0 KHz | 2 channels | 00:57:41 | 1.05 GB
Genre: eLearning Video / Photographing

Discover how to take better pictures underwater by achieving true color and sharp focus. Make your own $1 underwater grey card and learn how to use it. Learning the foundations of underwater photography that puts a powerful and very unique ability at your fingertips. Underwater photography brings the magic of the ocean to life in a powerful way. Being a skilled underwater photographer sets you apart from the pack. Books, publications, and exhibits are prime venues for a talented underwater photographer

Suitable for beginners and intermediate underwater photographers, in this course you'll learn the fundamentals of underwater photography color correction. You'll build a strong foundation as an underwater photographer that you can used around the world while adventuring underwater.

MediaInfo:


General
Complete name : Let's Go Diving and Learning.mp4
Format : MPEG-4
Format profile : Base Media
Codec ID : isom
File size : 35.0 MiB
Duration : 1mn 51s
Overall bit rate mode : Variable
Overall bit rate : 2 628 Kbps
Encoded date : UTC 2015-11-28 22:25:51
Tagged date : UTC 2015-11-28 22:25:51

Video
ID : 1
Format : AVC
Format/Info : Advanced Video Codec
Format profile : [email protected]
Format settings, CABAC : Yes
Format settings, ReFrames : 4 frames
Codec ID : avc1
Codec ID/Info : Advanced Video Coding
Duration : 1mn 51s
Bit rate : 2 501 Kbps
Maximum bit rate : 4 288 Kbps
Width : 1 280 pixels
Height : 720 pixels
Display aspect ratio : 16:9
Frame rate mode : Constant
Frame rate : 30.000 fps
Color space : YUV
Chroma subsampling : 4:2:0
Bit depth : 8 bits
Scan type : Progressive
Bits/(Pixel*Frame) : 0.090
Stream size : 33.3 MiB (95%)
Writing library : Zencoder Video Encoding System
Encoded date : UTC 2015-11-28 22:25:32
Tagged date : UTC 2015-11-28 22:25:51
Color primaries : BT.709-5, BT.1361, IEC 61966-2-4, SMPTE RP177
Transfer characteristics : BT.709-5, BT.1361
Matrix coefficients : BT.709-5, BT.1361, IEC 61966-2-4 709, SMPTE RP177

Audio
ID : 2
Format : AAC
Format/Info : Advanced Audio Codec
Format profile : LC
Codec ID : 40
Duration : 1mn 51s
Bit rate mode : Variable
Bit rate : 124 Kbps
Maximum bit rate : 139 Kbps
Channel(s) : 2 channels
Channel positions : Front: L R
Sampling rate : 48.0 KHz
Compression mode : Lossy
Delay relative to video : -3ms
Stream size : 1.65 MiB (5%)
Encoded date : UTC 2015-11-28 22:25:17
Tagged date : UTC 2015-11-28 22:25:51

Screenshots

The Ultimate Beginners Guide To Underwater Photography!
The Ultimate Beginners Guide To Underwater Photography!
The Ultimate Beginners Guide To Underwater Photography!
The Ultimate Beginners Guide To Underwater Photography!


Buy Premium Account To Get Resumable Support & Max Speed

DOWNLOAD LINK


Links are Interchangeable - Single Extraction - Premium is support resumable
Direct Download

Tags: Ultimate, Beginners, Underwater, Photography

Comments
Name:*
E-Mail:*
Add Comments:
Enter Code: *