Download Now

Beginning Photoshop with Will Terry (2015)

Beginning Photoshop
WEBRip | English | MP4 | 1280 x 720 | AVC ~1324 kbps | 24 fps
AAC | 138 Kbps | 48.0 KHz | 2 channels | 2h 43mn | 895.8 MB
Genre: Video Tutorial / Adobe Photoshop
This is a fundamental Photoshop course designed specifically for people who want to learn to paint in Photoshop but who have never used Photoshop before. The video lessons are broken down into short simple segments demonstrating a few tools. Will uses Photoshop CC in the videos but the lessons and tools apply to PS5 and PS6 as well. This video is designed to give you the foundation you need so you can begin to learn more advanced techniques in other tutorials.

Main topics covered:

Some of what you will learn
Setting up your workstation
Opening and sizing a document
Opening a scanned pencil sketch
How to use the layers pallet
Navigating with the hand, rotation, canvas size
How to edit images/ smart images
Brushes, opacity, flow, shape dynamics, transfer
Color swatches, color pallet
Painting assets on different layers for animation
Painting start to finish


MediaInfo:


General
Complete name : 06 lasso.mp4
Format : MPEG-4
Format profile : Base Media / Version 2
Codec ID : mp42 (mp42/isom)
File size : 139 MiB
Duration : 13mn 13s
Overall bit rate : 1 468 Kbps
Encoded date : UTC 2015-04-01 07:51:54
Tagged date : UTC 2015-04-01 07:51:54
Writing library : AVS

Video
ID : 1
Format : AVC
Format/Info : Advanced Video Codec
Format profile : [email protected]
Format settings, CABAC : Yes
Format settings, ReFrames : 2 frames
Codec ID : avc1
Codec ID/Info : Advanced Video Coding
Duration : 13mn 13s
Bit rate : 1 324 Kbps
Width : 1 280 pixels
Height : 720 pixels
Display aspect ratio : 16:9
Frame rate mode : Constant
Frame rate : 24.000 fps
Color space : YUV
Chroma subsampling : 4:2:0
Bit depth : 8 bits
Scan type : Progressive
Bits/(PixelFrame) : 0.060
Stream size : 125 MiB (90%)
Language : English
Encoded date : UTC 2015-04-01 07:51:54
Tagged date : UTC 2015-04-01 07:51:54
Color primaries : BT.709
Transfer characteristics : BT.709
Matrix coefficients : BT.709
mdhd_Duration : 793042

Audio
ID : 2
Format : AAC
Format/Info : Advanced Audio Codec
Format profile : LC
Codec ID : 40
Duration : 13mn 12s
Bit rate mode : Constant
Bit rate : 138 Kbps
Nominal bit rate : 320 Kbps
Channel(s) : 2 channels
Channel positions : Front: L R
Sampling rate : 48.0 KHz
Frame rate : 46.875 fps (1024 spf)
Compression mode : Lossy
Stream size : 13.0 MiB (9%)
Language : English
Encoded date : UTC 2015-04-01 07:51:54
Tagged date : UTC 2015-04-01 07:51:54
mdhd_Duration : 792960

Screenshots

Beginning Photoshop with Will Terry (2015)


Beginning Photoshop with Will Terry (2015)


Beginning Photoshop with Will Terry (2015)


Beginning Photoshop with Will Terry (2015)

Direct Download

Tags: Beginning, Photoshop

Comments
Name:*
E-Mail:*
Add Comments:
Enter Code: *