Download Now

Cream Ibiza Dance Workout

Cream Ibiza Dance Workout
DVDRip | English | MP4 | 720 x 576 | AVC ~1818 kbps | 25 fps
AAC | 160 Kbps | 48.0 KHz | 2 channels | 01:01:41 | 875 MB



"The world's greatest name in clubbing, Cream, brings all the spirit and energy to a brand new, pumping workout with moves that everyone from novice to aerobic addict can handle with ease!"
On a beautiful mountainside venue in Ibiza, world renowned choreographer, Supple, takes you through a series of funky, edgy and invigorating moves whilst you groove to your favourite club hits. Moving along to a fantastic mix of house, club classics and pumping anthems from Pitbull, Livin' Joy, Calvin Harris, T-empo and much more. The Combat, Dance Fit, Fat Burner and Legs, Bums & Tums sections get to work on your fitness, toning and weight loss - while you'll forget you're even working out. With easy-to-pick-up dance moves and that exciting Cream Ibiza vibe, you won't be able to sit still, no matter how hard you try.
General
Complete name : 03.Bums, Legs and Tums.mp4
Format
: MPEG-4
Format profile : Base Media / Version 2
Codec ID
: mp42
File size
: 148 MiB
Duration
: 10mn 24s
Overall bit rate mode : Variable
Overall bit rate : 1 983 Kbps
Encoded date : UTC 2036-02-06 06:28:16
Tagged date
: UTC 2036-02-06 06:28:16
Writing application
: HandBrake 0.10.2 2015060900
Video
ID : 1
Format
: AVC
Format/Info
: Advanced Video Codec
Format settings, CABAC : Yes
Format settings, ReFrames : 4 frames
Codec ID
: avc1
Codec ID/Info : Advanced Video Coding
Duration
: 10mn 24s
Bit rate
: 1 818 Kbps
Width
: 720 pixels
Height
: 576 pixels
Display aspect ratio : 16:9
Frame rate mode : Constant
Frame rate
: 25.000 fps
Standard
: PAL
Color space
: YUV
Chroma subsampling
: 4:2:0
Bit depth
: 8 bits
Scan type
: Progressive
Bits/(Pixel*Frame)
: 0.175
Stream size
: 135 MiB (92%)
Writing library : x264 core 142 r2479 dd79a61
Encoding settings: cabac=1 / ref=1 / deblock=1:0:0 / analyse=0x1:0x111 / me=hex / subme=2 / psy=1 / psy_rd=1.00:0.00 / mixed_ref=0 / me_range=16 / chroma_me=1 / trellis=0 / 8x8dct=0 / cqm=0 / deadzone=21,11 / fast_pskip=1 / chroma_qp_offset=0 / threads=6 / lookahead_threads=2 / sliced_threads=0 / nr=0 / decimate=1 / interlaced=0 / bluray_compat=0 / constrained_intra=0 / bframes=3 / b_pyramid=2 / b_adapt=1 / b_bias=0 / direct=1 / weightb=1 / open_gop=0 / weightp=1 / keyint=250 / keyint_min=25 / scenecut=40 / intra_refresh=0 / rc_lookahead=10 / rc=2pass / mbtree=1 / bitrate=1818 / ratetol=1.0 / qcomp=0.60 / qpmin=0 / qpmax=69 / qpstep=4 / cplxblur=20.0 / qblur=0.5 / vbv_maxrate=20000 / vbv_bufsize=25000 / nal_hrd=none / filler=0 / ip_ratio=1.40 / aq=1:1.00
Encoded date : UTC 2036-02-06 06:28:16
Tagged date
: UTC 2036-02-06 06:28:16
Color primaries : BT.470-6 System B, BT.470-6 System G, BT.601-6 625, BT.1358 625, BT.1700 625 PAL, BT.1700 625 SECAM
Transfer characteristics : BT.709-5, BT.1361
Matrix coefficients
: BT.601-6 525, BT.1358 525, BT.1700 NTSC, SMPTE 170M
Audio
ID : 2
Format
: AAC
Format/Info
: Advanced Audio Codec
Format profile : LC
Codec ID
: 40
Duration
: 10mn 24s
Bit rate mode : Variable
Bit rate
: 160 Kbps
Channel(s)
: 2 channels
Channel positions: Front: L R
Sampling rate : 48.0 KHz
Compression mode : Lossy
Stream size
: 11.9 MiB (8%)
Title
: Stereo
Language
: English
Encoded date : UTC 2036-02-06 06:28:16
Tagged date
: UTC 2036-02-06 06:28:16
Text
ID : 3
Format
: Apple text
Codec ID
: text
Duration
: 10mn 24s
Bit rate
: 0
Stream size
: 23.0 Bytes (0%)
Language
: English
Encoded date : UTC 2036-02-06 06:28:16
Tagged date
: UTC 2036-02-06 06:28:16
Screenshots
Cream Ibiza Dance Workout
Cream Ibiza Dance Workout
Cream Ibiza Dance Workout
Cream Ibiza Dance Workout
Cream Ibiza Dance Workout
Cream Ibiza Dance Workout

I recommends Buy premimum account for High speed+parallel downloads!

Rapidgator


Nitroflare


alfafile


uploaded
http://uploaded.net/file/nev5suf8/rbwjh.C.I.D.W.part1.rar
http://uploaded.net/file/n2zlkg7b/rbwjh.C.I.D.W.part2.rar
http://uploaded.net/file/jsnhw9qc/rbwjh.C.I.D.W.part3.rar
http://uploaded.net/file/gsuafu5x/rbwjh.C.I.D.W.part4.rar
http://uploaded.net/file/mdv25z07/rbwjh.C.I.D.W.part5.rar
Direct Download

Tags: Workout

Comments
Name:*
E-Mail:*
Add Comments:
Enter Code: *