Download Now

Black & Decker The Complete Guide to Masonry & Stonework

Black & Decker The Complete Guide to Masonry & Stonework
DVDRip | English | AVI | 720 x 400 | AVC ~2597 Kbps | 29.970 fps
MP3 | 196 Kbps | 48.0 KHz | 2 channels | 01:00:05 | 1.35 GB
Genre: eLearning Video / Homebuilding, Repair
No projects offer more aesthetic or financial satisfaction than DIY masonry and stonework projects. Homeowners can routinely save thousands of dollars in labor costs by buying and installing materials that are now readily available for routine purchase. This book includes traditional techniques for laying concrete adapted to the special needs of ordinary homeowners, but also features cutting edge materials and techniques, such as tumbled concrete pavers, acid-etching for colored concrete slabs, and important green paving options, such as rain-garden arroyos and permeable pavers. Several cutting edge projects are included, such as polished concrete countertops and stamped concrete walkways.

A complete outdoor kitchen project, ideal for a patio, is also included.
You can look other useful Homebuilding videos:

and my other last:

General
Complete name : Complete guide to masonry and stonework.avi
Format : DivX
Format/Info : Hack of AVI
File size : 1.18 GiB
Duration : 1h 0mn
Overall bit rate : 2 801 Kbps

Video
ID : 0
Format : MPEG-4 Visual
Format settings, BVOP : No
Format settings, QPel : No
Format settings, GMC : No warppoints
Format settings, Matrix : Default (H.263)
Codec ID : DX50
Codec ID/Hint : DivX 5
Duration : 1h 0mn
Bit rate : 2 597 Kbps
Width : 720 pixels
Height : 400 pixels
Display aspect ratio : 16:9
Frame rate : 29.970 fps
Color space : YUV
Chroma subsampling : 4:2:0
Bit depth : 8 bits
Scan type : Progressive
Compression mode : Lossy
Bits/(PixelFrame) : 0.301
Stream size : 1.09 GiB (93%)
Title : Video
Writing library : DivX 6.6.1.4

Audio
ID : 1
Format : MPEG Audio
Format version : Version 1
Format profile : Layer 3
Mode : Joint stereo
Mode extension : MS Stereo
Codec ID : 55
Codec ID/Hint : MP3
Duration : 1h 0mn
Bit rate mode : Constant
Bit rate : 192 Kbps
Channel(s) : 2 channels
Sampling rate : 48.0 KHz
Compression mode : Lossy
Stream size : 82.5 MiB (7%)
Alignment : Split accross interleaves
Interleave, duration : 33 ms (1.00 video frame)
Interleave, preload duration : 500 ms
Title : Audio
Writing library : LAME3.96

Screenshots

Black & Decker The Complete Guide to Masonry & Stonework

Black & Decker The Complete Guide to Masonry & Stonework

Black & Decker The Complete Guide to Masonry & Stonework

Black & Decker The Complete Guide to Masonry & Stonework

Direct Download

Tags: Decker, Complete, Masonry, Stonework

Comments
Name:*
E-Mail:*
Add Comments:
Enter Code: *