Download Now

Truefire - Chord Studies: Jazz Standards Vol. 1 (2015)

Truefire - Chord Studies: Jazz Standards Vol. 1
(.mp4) in an interactive shell | English | MP4 + MP3 jam tracks + PDF tabs | 864 x 486 | AVC ~966 Kbps | 29.970 fps
AAC | 128 Kbps | 44.1 KHz | 2 channels | 01:43:17 | 1006 MB
Genre: eLearning Video / Guitar lesson (2015)

"Theory and harmony instructionals filled with chord construction strategies and applications. The entire jazz standard songbook is built primarily on major and minor ii-V-I, major blues, minor blues and modal progressions. Learn how to comp over these types of progressions starting with these arrangements patterned after classic standards."

About the Chord Studies Series

If Forest Gump's shrimp-loving Bubba played guitar, his take on chords might go something like this, "You can strum ‘em, fingerpick ‘em, arpeggiate ‘em, mute ‘em, alternate tune ‘em, voice lead ‘em. Dey's uh, barre chords, altered chords, extended chords, moveable chords, cluster chords, slash chords, inversions, triads, diads. There's jazz chords, power chords, blues chords, cowboy chords, block chords, open chords..."

Bubba would be right - there's a wide and wonderful world of chords for we guitarists to explore. But what's the best way to do that? Chord dictionaries might be handy references but there's no context (and really, when's the last time you looked at one of those?).

Theory and harmony instructionals are filled with chord construction strategies and applications and we highly recommend digging as deep into the science of chords as your left brain will allow you.

However, learning new chords, progressions, applications and right-hand techniques in a musical context (songs, etudes, jamming with other players, etc.) is the most popular approach and that is the educational premise behind Brad's Carlton's Chord Studies course seres.

Each edition of Chord Studies features 15 play-along and jammable chord studies, which are focused on a particular chord type, chord progression or chord application. While Brad does touch on rhythmic qualities, this is not a rhythm guitar course - these studies are specifically designed to significantly expand your chord know-how and vocabulary.

Brad covers a range of styles, levels , chord types and progressions across 10 editions: CAGED Chords, Jazz Blues Progressions, Open String Chords, Rock and Pop Progressions, Slow Blues Progressions, Evolving Blues, Evolving Triads, Slash Chords, Power Chords and Beginner Chords.

Each of the 15 Studies within an edition includes an overview from Brad followed by a performance and play-along of the chord study over a rhythm track. Chord grid charts and a chord lead sheet accompanies each study. Plus, you'll get all of the practice rhythm tracks to work with on your own.

Reference the chord charts to become familiar with the voicings and their fingerings, and then use the lead sheet to play-along with Brad's video performance. Try different rhythmic patterns over the supplied rhythm tracks and then take it all to your own playlist of songs and jam tracks.

Table of Contents
32 Total Video Lessons

Chord Studies: Jazz Standards Vol. 1
Jazz Standards Vol. 1
Blue Minor
Blue Minor
Bossa Nova Girl
Bossa Nova Girl
Fall Foliage
Fall Foliage
Garden Beverage
Garden Beverage
Desensitized
Desensitized
Night Shift
Night Shift
100 Percent
100 Percent
Girls Blues
Girls Blues
Have a Cigar
Have a Cigar
You Are Everything
You Are Everything
From Sky to Midnight
From Sky to Midnight
Hang 10
Hang 10
My Deadbeat Fred
My Deadbeat Fred
Noir Greek
Noir Greek
Kramden Special
Kramden Special

also You can look my other last:

General
Complete name : bcjsv1-011.mp4
Format
: MPEG-4
Format profile : Base Media / Version 2
Codec ID
: mp42
File size
: 24.9 MiB
Duration
: 3mn 10s
Overall bit rate : 1 097 Kbps
Encoded date : UTC 2015-02-19 02:38:35
Tagged date
: UTC 2015-02-19 02:38:35

Video
ID : 2
Format
: AVC
Format/Info
: Advanced Video Codec
Format profile : [email protected]
Format settings, CABAC : No
Format settings, ReFrames : 5 frames
Format settings, GOP : M=1, N=24
Codec ID
: avc1
Codec ID/Info : Advanced Video Coding
Duration
: 3mn 10s
Bit rate mode : Variable
Bit rate
: 966 Kbps
Width
: 864 pixels
Height
: 486 pixels
Display aspect ratio : 16:9
Frame rate mode : Constant
Frame rate
: 29.970 fps
Standard
: NTSC
Color space
: YUV
Chroma subsampling

: 4:2:0
Bit depth
: 8 bits
Scan type
: Progressive
Bits/(Pixel*Frame)

: 0.077
Stream size
: 21.9 MiB (88%)
Language
: English
Encoded date : UTC 2015-02-19 02:38:35
Tagged date
: UTC 2015-02-19 02:38:35

Audio
ID : 1
Format
: AAC
Format/Info
: Advanced Audio Codec
Format profile : LC
Codec ID
: 40
Duration
: 3mn 10s
Bit rate mode : Constant
Bit rate
: 128 Kbps
Channel(s)
: 2 channels
Channel positions: Front: L R
Sampling rate : 44.1 KHz
Compression mode : Lossy
Stream size
: 2.90 MiB (12%)
Language
: English
Encoded date : UTC 2015-02-19 02:38:35
Tagged date
: UTC 2015-02-19 02:38:35

Screenshots

Truefire - Chord Studies: Jazz Standards Vol. 1 (2015)

Truefire - Chord Studies: Jazz Standards Vol. 1 (2015)

Truefire - Chord Studies: Jazz Standards Vol. 1 (2015)

For more Exclusive material, Visit my

Truefire - Chord Studies: Jazz Standards Vol. 1 (2015)


DOWNLOAD LINKS:
Buy Premium To Support Me & Get Resumable Support & Max Speed


Links are Interchangeable - No Password - Single Extraction
Direct Download

Tags: Truefire, Studies, Standards

Comments
Name:*
E-Mail:*
Add Comments:
Enter Code: *