Download Now

Installing Kitchen Cabinets and Countertops: with Tom Law

Installing Kitchen Cabinets and Countertops: with Tom Law
DVDRip | English | AVI | 640 x 360 | XviD ~900 Kbps | 29.970 fps
AC-3 | 448 Kbps | 48.0 KHz | 2 channels | 00:43:59 | 426 MB
Genre: eLearning Video / Homebuilding, Repair, Woodworking
Tom Law shares his techniques for smooth and accurate cabinet installation. In this DVD he covers all the basics of installation, including shimming to level cabinets, installing hardware, and adjusting the fit of doors and drawers. Youll also learn about: scribing for accurate installation; squaring up cabinets to the wall; building and leveling toe kicks; adjusting doors, putting in the countertop; and cutting the sink hole. Tom Law is a former consulting editor to Fine Homebuilding magazine. He has been a master carpenter and custom builder for over 30 years. He also appears on the DVD , Installing Doors & ShiChuang.

You can look other useful Homebuilding videos:

and my other last:

General
Complete name : Installing Kitchen Cabinets and Countertops.avi
Format : AVI
Format/Info : Audio Video Interleave
File size : 426 MiB
Duration : 43mn 49s
Overall bit rate : 1 360 Kbps
Movie name : 61049 INSTALL KC CT.Title2.DVDRip
Director : Caseman
Writing application : Lavf51.19.0
Original source form/Name : 61049 INSTALL KC CT

Video
ID : 0
Format : MPEG-4 Visual
Format profile : [email protected]
Format settings, BVOP : No
Format settings, QPel : No
Format settings, GMC : No warppoints
Format settings, Matrix : Default (H.263)
Codec ID : XVID
Codec ID/Hint : XviD
Duration : 43mn 49s
Bit rate : 900 Kbps
Width : 640 pixels
Height : 480 pixels
Display aspect ratio : 4:3
Frame rate : 29.970 fps
Color space : YUV
Chroma subsampling : 4:2:0
Bit depth : 8 bits
Scan type : Progressive
Compression mode : Lossy
Bits/(PixelFrame) : 0.098
Stream size : 282 MiB (66%)
Writing library : XviD 1.1.2 (UTC 2006-11-01)

Audio
ID : 1
Format : AC-3
Format/Info : Audio Coding 3
Mode extension : CM (complete main)
Codec ID : 2000
Duration : 43mn 49s
Bit rate mode : Constant
Bit rate : 448 Kbps
Channel(s) : 2 channels
Channel positions : Front: L R
Sampling rate : 48.0 KHz
Bit depth : 16 bits
Compression mode : Lossy
Stream size : 140 MiB (33%)
Alignment : Aligned on interleaves
Interleave, duration : 32 ms (0.96 video frame)
Interleave, preload duration : 32 ms

Screenshots

Installing Kitchen Cabinets and Countertops: with Tom Law

Installing Kitchen Cabinets and Countertops: with Tom Law

Installing Kitchen Cabinets and Countertops: with Tom Law

Installing Kitchen Cabinets and Countertops: with Tom Law

Installing Kitchen Cabinets and Countertops: with Tom Law

Direct Download

Tags: Installing, Kitchen, Cabinets, Countertops

Comments
Name:*
E-Mail:*
Add Comments:
Enter Code: *