Download Now

Charlie Brooks: Before and After Workout

Charlie Brooks: Before and After Workout
DVDRip | English | MP4 | 704 x 572 | AVC ~1887 kbps | 25 fps
AAC | 160 Kbps | 48.0 KHz | 2 channels | 00:59:06 | 868 MB
Genre: eLearning Video / Fitness

Fitness trainer Dee Thresher puts Charlie Brooks through her paces in this keep-fit guide. Starting with a warm-up, the guide goes on to demonstrate moves based around disco, combat, high intensity, and a Pilates cool down.
One of the most acclaimed celebrity fitness DVDs of recent times, Charlie Brooks' Before And After Workout finds fitness trainer Dee Thresher putting the former soap star through her paces with a series of five ten minute workouts.

Brooks herself claims to have lost a couple of stone using the routines on the disc already, and it's easy to believe why. And rather than, as some in the genre choose to do, focusing heavily on the celebrity, this fitness discs puts its firm emphasis on the workout routines. They're explained clearly, are straightforward to follow, and there's enough variety to ensure you don't get bored.

The routines are of varying difficulty, and unless you're already fighting fit, it's feasible that you'll have some trouble with them in the early days. But then that's the point. And because none of the workouts outstay their welcome, there's little reason not to stay motivated. Sure, you'll end up working hard, but there's nothing on this disc that outstays its welcome.

It's surprising perhaps to find a fitness DVD that has earned such acclaim, but having followed Charlie Brooks' Before And After Workout through, the plaudits are well deserved. So if you've ever been frustrated by a celebrity workout disc that's proven to be more about the former than the latter, then this will be a very welcome treat.--Ann Foster

General
Complete name : Before & After Workout.mp4
Format : MPEG-4
Format profile : Base Media / Version 2
Codec ID : mp42
File size : 868 MiB
Duration : 59mn 6s
Overall bit rate mode : Variable
Overall bit rate : 2 053 Kbps
Encoded date : UTC 2036-02-06 06:28:16
Tagged date : UTC 2036-02-06 06:28:16
Writing application : HandBrake 0.10.2 2015060900

Video
ID : 1
Format : AVC
Format/Info : Advanced Video Codec
Format profile : [email protected]
Format settings, CABAC : Yes
Format settings, ReFrames : 4 frames
Codec ID : avc1
Codec ID/Info : Advanced Video Coding
Duration : 59mn 6s
Bit rate : 1 887 Kbps
Width : 704 pixels
Height : 572 pixels
Display aspect ratio : 16:9
Frame rate mode : Constant
Frame rate : 25.000 fps
Color space : YUV
Chroma subsampling : 4:2:0
Bit depth : 8 bits
Scan type : Progressive
Bits/(Pixel*Frame) : 0.187
Stream size : 798 MiB (92%)
Writing library : x264 core 142 r2479 dd79a61
Encoding settings : cabac=1 / ref=1 / deblock=1:0:0 / analyse=0x1:0x111 / me=hex / subme=2 / psy=1 / psy_rd=1.00:0.00 / mixed_ref=0 / me_range=16 / chroma_me=1 / trellis=0 / 8x8dct=0 / cqm=0 / deadzone=21,11 / fast_pskip=1 / chroma_qp_offset=0 / threads=12 / lookahead_threads=4 / sliced_threads=0 / nr=0 / decimate=1 / interlaced=0 / bluray_compat=0 / constrained_intra=0 / bframes=3 / b_pyramid=2 / b_adapt=1 / b_bias=0 / direct=1 / weightb=1 / open_gop=0 / weightp=1 / keyint=250 / keyint_min=25 / scenecut=40 / intra_refresh=0 / rc_lookahead=10 / rc=2pass / mbtree=1 / bitrate=1887 / ratetol=1.0 / qcomp=0.60 / qpmin=0 / qpmax=69 / qpstep=4 / cplxblur=20.0 / qblur=0.5 / vbv_maxrate=20000 / vbv_bufsize=25000 / nal_hrd=none / filler=0 / ip_ratio=1.40 / aq=1:1.00
Encoded date : UTC 2036-02-06 06:28:16
Tagged date : UTC 2036-02-06 06:28:16
Color primaries : BT.470-6 System B, BT.470-6 System G, BT.601-6 625, BT.1358 625, BT.1700 625 PAL, BT.1700 625 SECAM
Transfer characteristics : BT.709-5, BT.1361
Matrix coefficients : BT.601-6 525, BT.1358 525, BT.1700 NTSC, SMPTE 170M

Audio
ID : 2
Format : AAC
Format/Info : Advanced Audio Codec
Format profile : LC
Codec ID : 40
Duration : 59mn 5s
Bit rate mode : Variable
Bit rate : 160 Kbps
Channel(s) : 2 channels
Channel positions : Front: L R
Sampling rate : 48.0 KHz
Compression mode : Lossy
Stream size : 67.8 MiB (8%)
Title : Stereo
Language : English
Encoded date : UTC 2036-02-06 06:28:16
Tagged date : UTC 2036-02-06 06:28:16

Text
ID : 3
Format : Apple text
Codec ID : text
Duration : 59mn 6s
Bit rate mode : Constant
Bit rate : 0
Stream size : 138 Bytes (0%)
Language : English
Encoded date : UTC 2036-02-06 06:28:16
Tagged date : UTC 2036-02-06 06:28:16

Screenshots

Charlie Brooks: Before and After Workout

Charlie Brooks: Before and After Workout

Charlie Brooks: Before and After Workout

Charlie Brooks: Before and After Workout


Download link:
Links are Interchangeable - Single Extraction - Premium is support resumable
Direct Download

Tags: Charlie, Brooks, Before, Workout

Comments
Name:*
E-Mail:*
Add Comments:
Enter Code: *