Download Now

Fundamentals of Still Life and Product Photography (2015)

Fundamentals of Still Life and Product Photography (2015)
WEBRip | English | MP4 | 1280 x 720 | AVC ~1525 kbps | 23.976 fps
AAC | 256 Kbps | 48.0 KHz | 2 channels | 1h 36mn | 1.09 GB
Genre: Video Tutorial / Photographing

"Photography plays a vital role in selling products in print, video, and on the web. Mastering lighting and the setup is the key to producing great-looking images. In this course you will learn how to create a beautiful product photo from a concept illustration. You will learn about speedlights and studio strobes, how they are different, and how to trigger them."

You will also learn how to use an incident light meter, so that you can use your flashes efficiently. In the example shoot, you will see both speedlights and strobes used with a few basic modifiers to create this look, and you will see it built up one light at a time. By the end of this course, you will have the tools you need to be able to stage the products, meter the lights, and shoot some fantastic-looking product shots using multiple flashes!

Content:
1.Introduction 2 lessons, 04:19

1.1 Introduction 01:22

1.2 What You Need 02:57

2. Light Metering 2 lessons, 13:46
2.1 Why Your Camera's Meter Won't Help 03:44
2.2 Incident Light Metering 10:02

3. The Light Source 3 lessons, 22:29
3.1 Flash Basics 04:08
3.2 Types of Flash 08:53
3.3 Triggering Your Flashes 09:28

4. The Shoot 6 lessons, 51:17
4.1 Setup 08:36
4.2 Composition 05:14
4.3 First Highlight 10:44
4.4 Fill Light 09:07
4.5 Background Light 10:29
4.6 Value Added 07:07

5. Conclusion 1 lesson, 01:27
5.1 Conclusion 01:27

also You can look my other last:

General
Complete name : 0303_Triggering Your Flashes.mp4
Format : MPEG-4
Format profile : Base Media
Codec ID : isom
File size : 121 MiB
Duration : 9mn 28s
Overall bit rate mode : Variable
Overall bit rate : 1 785 Kbps
Encoded date : UTC 2015-09-14 21:31:13
Tagged date : UTC 2015-09-14 21:31:13

Video
ID : 1
Format : AVC
Format/Info : Advanced Video Codec
Format profile : [email protected]
Format settings, CABAC : Yes
Format settings, ReFrames : 4 frames
Codec ID : avc1
Codec ID/Info : Advanced Video Coding
Duration : 9mn 28s
Bit rate : 1 525 Kbps
Maximum bit rate : 3 048 Kbps
Width : 1 280 pixels
Height : 720 pixels
Display aspect ratio : 16:9
Frame rate mode : Constant
Frame rate : 23.976 fps
Color space : YUV
Chroma subsampling : 4:2:0
Bit depth : 8 bits
Scan type : Progressive
Bits/(Pixel*Frame) : 0.069
Stream size : 103 MiB (85%)
Writing library : x264 core 138 r2358 9e941d1
Encoding settings : cabac=1 / ref=3 / deblock=1:0:0 / analyse=0x3:0x113 / me=hex / subme=8 / psy=1 / psy_rd=1.00:0.00 / mixed_ref=1 / me_range=16 / chroma_me=1 / trellis=1 / 8x8dct=1 / cqm=0 / deadzone=21,11 / fast_pskip=1 / chroma_qp_offset=-2 / threads=18 / lookahead_threads=3 / sliced_threads=0 / nr=0 / decimate=1 / interlaced=0 / bluray_compat=0 / constrained_intra=0 / bframes=3 / b_pyramid=2 / b_adapt=2 / b_bias=0 / direct=3 / weightb=1 / open_gop=0 / weightp=2 / keyint=230 / keyint_min=23 / scenecut=40 / intra_refresh=0 / rc_lookahead=40 / rc=crf / mbtree=1 / crf=21.0 / qcomp=0.60 / qpmin=0 / qpmax=69 / qpstep=4 / ip_ratio=1.40 / aq=1:1.00
Encoded date : UTC 2015-09-14 14:33:05
Tagged date : UTC 2015-09-14 21:31:34

Audio
ID : 2
Format : AAC
Format/Info : Advanced Audio Codec
Format profile : LC
Codec ID : 40
Duration : 9mn 28s
Bit rate mode : Variable
Bit rate : 256 Kbps
Maximum bit rate : 262 Kbps
Channel(s) : 2 channels
Channel positions : Front: L R
Sampling rate : 48.0 KHz
Compression mode : Lossy
Stream size : 17.3 MiB (14%)
Encoded date : UTC 2015-09-14 14:17:48
Tagged date : UTC 2015-09-14 21:31:34

Screenshots

Fundamentals of Still Life and Product Photography (2015)

Fundamentals of Still Life and Product Photography (2015)

Fundamentals of Still Life and Product Photography (2015)

Fundamentals of Still Life and Product Photography (2015)

Fundamentals of Still Life and Product Photography (2015)

For more Exclusive material, Visit my

Fundamentals of Still Life and Product Photography (2015)

Download Below:
----------------------------------------------
Recommend Purchase Premium Account

----------------------------------------------

RapidGator:
http://rapidgator.net/file/20c3ceb4d023d6ddb65b89dd9e25216d/qke73.Fundamentals.of.Still.Life.and.Product.Photography.2015.part1.rar.html
http://rapidgator.net/file/a2c76aa9be25fcddc33c30aa9dec5add/qke73.Fundamentals.of.Still.Life.and.Product.Photography.2015.part2.rar.html
http://rapidgator.net/file/9915e27938cc64d7db17378b8b09f4d7/qke73.Fundamentals.of.Still.Life.and.Product.Photography.2015.part3.rar.html
http://rapidgator.net/file/4787edfae635ad2d74d8456d060ba0da/qke73.Fundamentals.of.Still.Life.and.Product.Photography.2015.part4.rar.html
http://rapidgator.net/file/a29b9218466851f378603dd08476a9d3/qke73.Fundamentals.of.Still.Life.and.Product.Photography.2015.part5.rar.html
http://rapidgator.net/file/10638e548638df43dd2b537dd58e7844/qke73.Fundamentals.of.Still.Life.and.Product.Photography.2015.part6.rar.html

Uploaded:
http://uploaded.net/file/hi3tnijr/qke73.Fundamentals.of.Still.Life.and.Product.Photography.2015.part1.rar
http://uploaded.net/file/045sf3gz/qke73.Fundamentals.of.Still.Life.and.Product.Photography.2015.part2.rar
http://uploaded.net/file/i7lsqptn/qke73.Fundamentals.of.Still.Life.and.Product.Photography.2015.part3.rar
http://uploaded.net/file/epwe2spq/qke73.Fundamentals.of.Still.Life.and.Product.Photography.2015.part4.rar
http://uploaded.net/file/yv826wcp/qke73.Fundamentals.of.Still.Life.and.Product.Photography.2015.part5.rar
http://uploaded.net/file/kjs5uimm/qke73.Fundamentals.of.Still.Life.and.Product.Photography.2015.part6.rar

TurboBit:
http://turbobit.net/la0zb83rvq3d/qke73.Fundamentals.of.Still.Life.and.Product.Photography.2015.part1.rar.html
http://turbobit.net/cw1ivexvmu6a/qke73.Fundamentals.of.Still.Life.and.Product.Photography.2015.part2.rar.html
http://turbobit.net/o46nuyxv56r5/qke73.Fundamentals.of.Still.Life.and.Product.Photography.2015.part3.rar.html
http://turbobit.net/khcxwfu9ln2d/qke73.Fundamentals.of.Still.Life.and.Product.Photography.2015.part4.rar.html
http://turbobit.net/9yqu6ncl43q8/qke73.Fundamentals.of.Still.Life.and.Product.Photography.2015.part5.rar.html
http://turbobit.net/zmknznhfmooh/qke73.Fundamentals.of.Still.Life.and.Product.Photography.2015.part6.rar.html

Direct Download

Tags: Fundamentals, Product, Photography

Comments
Name:*
E-Mail:*
Add Comments:
Enter Code: *