Download Now

The Art of Photography: Capturing The Moments People Share with Cliff Mautner and Mia McCormick

The Art of Photography: Capturing The Moments People Share
WEBRip | English | MP4 | 1280 x 720 | AVC ~1803 kbps | 29.970 fps
AAC | 64 Kbps | 44.1 KHz | 1 channel | 00:50:21 | 671.4 MB
Genre: Video Tutorial / Photographing

Capturing great portraits is all about understanding how to manipulate the quality, quantity, and direction of light. Learn how the pros use a variety of light shaping tools to create fantastic portraits every time, and in any kind of situation.
General
Complete name : The Art of Photography- Capturing The Moments People Share - KelbyTraining.com_2.mp4
Format : MPEG-4
Format profile : Base Media
Codec ID : isom
File size : 134 MiB
Duration : 9mn 58s
Overall bit rate : 1 875 Kbps
Encoded date : UTC 2013-05-16 18:52:25
Tagged date : UTC 2013-05-16 18:52:25
Writing application : Lavf53.32.100
Copyright : kelbymediagroup.com

Video
ID : 1
Format : AVC
Format/Info : Advanced Video Codec
Format profile : [email protected]
Format settings, CABAC : Yes
Format settings, ReFrames : 3 frames
Codec ID : avc1
Codec ID/Info : Advanced Video Coding
Duration : 9mn 58s
Bit rate : 1 800 Kbps
Width : 1 280 pixels
Height : 720 pixels
Display aspect ratio : 16:9
Frame rate mode : Constant
Frame rate : 29.970 fps
Color space : YUV
Chroma subsampling : 4:2:0
Bit depth : 8 bits
Scan type : Progressive
Bits/(Pixel*Frame) : 0.065
Stream size : 129 MiB (96%)
Writing library : x264 core 120
Encoding settings : cabac=1 / ref=3 / deblock=1:0:0 / analyse=0x1:0x111 / me=hex / subme=6 / psy=0 / mixed_ref=0 / me_range=16 / chroma_me=1 / trellis=1 / 8x8dct=0 / cqm=0 / deadzone=21,11 / fast_pskip=1 / chroma_qp_offset=0 / threads=12 / sliced_threads=0 / nr=0 / decimate=1 / interlaced=0 / bluray_compat=0 / constrained_intra=0 / bframes=3 / b_pyramid=0 / b_adapt=1 / b_bias=0 / direct=1 / weightb=0 / open_gop=0 / weightp=2 / keyint=150 / keyint_min=76 / scenecut=0 / intra_refresh=0 / rc=2pass / mbtree=0 / bitrate=1800 / ratetol=1.0 / qcomp=0.60 / qpmin=10 / qpmax=51 / qpstep=4 / cplxblur=20.0 / qblur=0.5 / ip_ratio=1.40 / pb_ratio=1.30 / aq=1:1.00
Language : English
Encoded date : UTC 2013-05-16 18:52:25
Tagged date : UTC 2013-05-16 18:52:25

Audio
ID : 2
Format : AAC
Format/Info : Advanced Audio Codec
Format profile : LC
Codec ID : 40
Duration : 9mn 58s
Bit rate mode : Constant
Bit rate : 64.0 Kbps
Channel(s) : 1 channel
Channel positions : Front: C
Sampling rate : 44.1 KHz
Compression mode : Lossy
Stream size : 4.57 MiB (3%)
Language : English
Encoded date : UTC 2013-05-16 18:52:25
Tagged date : UTC 2013-05-16 18:52:25

Screenshots

The Art of Photography: Capturing The Moments People Share with Cliff Mautner and Mia McCormick

The Art of Photography: Capturing The Moments People Share with Cliff Mautner and Mia McCormick

The Art of Photography: Capturing The Moments People Share with Cliff Mautner and Mia McCormick

The Art of Photography: Capturing The Moments People Share with Cliff Mautner and Mia McCormick

The Art of Photography: Capturing The Moments People Share with Cliff Mautner and Mia McCormick


Download link:
Nitroflare:
ucwqo.The.Art.of.Photography.Capturing.The.Moments.People.Share.with.Cliff.Mautner.and.Mia.McCormick.part1.rar
ucwqo.The.Art.of.Photography.Capturing.The.Moments.People.Share.with.Cliff.Mautner.and.Mia.McCormick.part2.rar
ucwqo.The.Art.of.Photography.Capturing.The.Moments.People.Share.with.Cliff.Mautner.and.Mia.McCormick.part3.rar
ucwqo.The.Art.of.Photography.Capturing.The.Moments.People.Share.with.Cliff.Mautner.and.Mia.McCormick.part4.rar
ucwqo.The.Art.of.Photography.Capturing.The.Moments.People.Share.with.Cliff.Mautner.and.Mia.McCormick.part5.rar
ucwqo.The.Art.of.Photography.Capturing.The.Moments.People.Share.with.Cliff.Mautner.and.Mia.McCormick.part6.rar
ucwqo.The.Art.of.Photography.Capturing.The.Moments.People.Share.with.Cliff.Mautner.and.Mia.McCormick.part7.rar

Uploadable.ch:
ucwqo.The.Art.of.Photography.Capturing.The.Moments.People.Share.with.Cliff.Mautner.and.Mia.McCormick.part1.rar
ucwqo.The.Art.of.Photography.Capturing.The.Moments.People.Share.with.Cliff.Mautner.and.Mia.McCormick.part2.rar
ucwqo.The.Art.of.Photography.Capturing.The.Moments.People.Share.with.Cliff.Mautner.and.Mia.McCormick.part3.rar
ucwqo.The.Art.of.Photography.Capturing.The.Moments.People.Share.with.Cliff.Mautner.and.Mia.McCormick.part4.rar
ucwqo.The.Art.of.Photography.Capturing.The.Moments.People.Share.with.Cliff.Mautner.and.Mia.McCormick.part5.rar
ucwqo.The.Art.of.Photography.Capturing.The.Moments.People.Share.with.Cliff.Mautner.and.Mia.McCormick.part6.rar
ucwqo.The.Art.of.Photography.Capturing.The.Moments.People.Share.with.Cliff.Mautner.and.Mia.McCormick.part7.rar
Links are Interchangeable - Single Extraction - Premium is support resumable
Direct Download

Tags: Photography, Capturing, Moments, People, Mautner, McCormick

Comments
Name:*
E-Mail:*
Add Comments:
Enter Code: *