Download Now

JamTrackCentral - Odd Time Licks: Vol.1 5/4 with Cuthrie Govan (2015)

JamTrackCentral - Odd Time Licks: Vol.1 5/4 with Cuthrie Govan (2015)
WEBRip | English | MP4 + MP3 jam + PDF tabs | 1280 x 720 | AVC ~3437 Kbps | 29.970 fps
AAC | 192 Kbps | 48.0 KHz | 2 channels | ~10 minutes | 272 MB
Genre: eLearning Video / Guitar lesson (2015)

"For his debut 20 Licks series we gave Guthrie Govan all of the creative liberties he desired, and what we were left with is pretty outstanding! This package is all Guthrie; from the overall series concept, to the jamtrack, the ideas and licks inside the package. It's all hot off the press from one of the worlds most accomplished, and refined guitar players."

Playing over unusual time signatures can be daunting and people often have trouble relaxing. This series from the brilliant mind of Guthrie Govan aims to break up the rigidity that this entails, helping you overcome any fears of odd time signatures that you might have. Guthrie's licks will help you develop a creative, controlled and intuitive approach, giving you a confident façade that will free up your mind from the arduous task of relentless counting, letting you focus on what really counts - the music.

Guthrie says ‘I think there's a lot to be said for overcoming your fear of odd time signatures just by kind of feeling your way around the structure of the bar and developing a sense for how far away the next ‘beat 1' is going to be. There are 20 demo licks here to give you an idea about how to navigate your way through a bar of 5/4 or a series of bars of 5/4, and hopefully land on your feet at the end of the lick. The intention is that, as you work through these licks you get some sort of structural idea of how long the bar is and you start to feel to your way around the rhythmic stepping stones and it gives you confidence so that when you are improvising your own stuff you feel a little less lost and a little less at sea. Really there's no reason to be scared of odd time signatures.'

Theoretically, the core of Guthrie's melodic work in this package is mainly Dorian, Minor Pentatonic and Blues scale based, interspersed with melodic decorations such as chromatic passing tones and the occasional ‘outside' phrase thrown in for good measure. Guthrie made this choice consciously to help you focus on the rhythmic aspect of these licks, as you study and master his odd time phrasing techniques to incorporate and ingrain the 5/4 groove into your repertoire.

As ever, we have accurately transcribed every note and included the TAB/notation in the download to help you learn and analyse Guthrie licks alongside the video performances. We have also included the licks in audio format, a 'lick backing track' and extended backing track, as well as bonus lick notes to aid your studies as you delve deeper into the mind of the guitar great, and learn how to navigate odd time signatures like a pro!

also You can look my other last:

General
Complete name : aj_melphrasingmasterclass_essentials.mp4
Format
: MPEG-4
Format profile : Base Media / Version 2
Codec ID
: mp42
File size
: 294 MiB
Duration
: 5mn 6s
Overall bit rate mode : Variable
Overall bit rate : 8 046 Kbps
Encoded date : UTC 2015-07-14 00:54:10
Tagged date
: UTC 2015-07-14 00:54:13
©TIM
: 00:00:00:00
©TSC
: 30000
©TSZ
: 1001

Video
ID : 1
Format
: AVC
Format/Info
: Advanced Video Codec
Format profile : [email protected]
Format settings, CABAC : Yes
Format settings, ReFrames : 3 frames
Codec ID
: avc1
Codec ID/Info : Advanced Video Coding
Duration
: 5mn 6s
Bit rate
: 7 723 Kbps
Width
: 1 280 pixels
Height
: 720 pixels
Display aspect ratio : 16:9
Frame rate mode : Variable
Frame rate
: 29.970 fps
Minimum frame rate

: 29.970 fps
Maximum frame rate

: 30.000 fps
Standard
: NTSC
Color space
: YUV
Chroma subsampling

: 4:2:0
Bit depth
: 8 bits
Scan type
: Progressive
Bits/(Pixel*Frame)

: 0.280
Stream size
: 282 MiB (96%)
Language
: English
Encoded date : UTC 2015-07-14 00:54:10
Tagged date
: UTC 2015-07-14 00:54:10
Color primaries : BT.709-5, BT.1361, IEC 61966-2-4, SMPTE RP177
Transfer characteristics : BT.709-5, BT.1361
Matrix coefficients

: BT.709-5, BT.1361, IEC 61966-2-4 709, SMPTE RP177

Audio
ID : 2
Format
: AAC
Format/Info
: Advanced Audio Codec
Format profile : LC
Codec ID
: 40
Duration
: 5mn 6s
Source duration : 5mn 6s
Bit rate mode : Variable
Bit rate
: 317 Kbps
Maximum bit rate : 324 Kbps
Channel(s)
: 2 channels
Channel positions: Front: L R
Sampling rate : 48.0 KHz
Compression mode : Lossy
Stream size
: 11.6 MiB (4%)
Source stream size

: 11.6 MiB
Language
: English
Encoded date : UTC 2015-07-14 00:54:10
Tagged date
: UTC 2015-07-14 00:54:10

Screenshots

JamTrackCentral - Odd Time Licks: Vol.1 5/4 with Cuthrie Govan (2015)

JamTrackCentral - Odd Time Licks: Vol.1 5/4 with Cuthrie Govan (2015)

JamTrackCentral - Odd Time Licks: Vol.1 5/4 with Cuthrie Govan (2015)



Buy Premium Account To Get Resumable Support & Max Speed




Links are Interchangeable - No Password
Direct Download

Tags: JamTrackCentral, Cuthrie

Comments
Name:*
E-Mail:*
Add Comments:
Enter Code: *