Download Now

Ultimate Flexibility - Stretching for Martial Arts with Sang H. Kim

Ultimate Flexibility - Stretching for Martial Arts with Sang H. Kim
DVD5 | English | VOB | 720 x 480 | MPEG2 ~6102 kbps | 29.970 fps
AC-3 | 192 Kbps | 48.0 KHz | 2 channels | 95 minutes | 4.33 GB
Genre: eLearning Video / Martial Art, Sport

Achieve Ultimate Flexibility in 20 minutes a day! Based on his bestselling book Ultimate Flexibility, Sang H. Kim has created a series of 20-minute stretching workouts that you can follow at home to increase your flexibility and tone your body.
Each of the three workouts - easy, moderate and intense - gives you a total body stretch with a special focus on the muscles commonly used in martial arts training. You also get an introduction to stretching, tips on getting the most out of your workouts, exercises to improve the height and power of your kicks, and a bonus 7-minute workout that focuses on stretches for high kicks and splits. If you re ready to dedicate 20 minutes a day to improving your flexibility, this DVD is for you.

General
Complete name : VTS_02_1.VOB
Format : MPEG-PS
File size : 978 MiB
Duration : 21mn 19s
Overall bit rate : 6 415 Kbps

Video
ID : 224 (0xE0)
Format : MPEG Video
Format version : Version 2
Format profile : [email protected]
Format settings, BVOP : Yes
Format settings, Matrix : Default
Format settings, GOP : M=3, N=15
Duration : 21mn 19s
Bit rate : 6 102 Kbps
Width : 720 pixels
Height : 480 pixels
Display aspect ratio : 16:9
Frame rate : 29.970 fps
Standard : NTSC
Color space : YUV
Chroma subsampling : 4:2:0
Bit depth : 8 bits
Scan type : Interlaced
Scan order : Bottom Field First
Compression mode : Lossy
Bits/(Pixel*Frame) : 0.589
Stream size : 929 MiB (95%)

Audio
ID : 189 (0xBD)-128 (0x80)
Format : AC-3
Format/Info : Audio Coding 3
Mode extension : CM (complete main)
Muxing mode : DVD-Video
Duration : 21mn 19s
Bit rate mode : Constant
Bit rate : 192 Kbps
Channel(s) : 2 channels
Channel positions : Front: L R
Sampling rate : 48.0 KHz
Bit depth : 16 bits
Compression mode : Lossy
Delay relative to video : -67ms
Stream size : 29.3 MiB (3%)

Menu

Screenshots

Ultimate Flexibility - Stretching for Martial Arts with Sang H. Kim

Ultimate Flexibility - Stretching for Martial Arts with Sang H. Kim

Ultimate Flexibility - Stretching for Martial Arts with Sang H. Kim

Ultimate Flexibility - Stretching for Martial Arts with Sang H. Kim


Buy Premium Account To Get Resumable Support & Max Speed

Ultimate Flexibility - Stretching for Martial Arts with Sang H. Kim

Links are Interchangeable - No Password - Single Extraction
Direct Download

Tags: Ultimate, Flexibility, Stretching, Martial

Comments
Name:*
E-Mail:*
Add Comments:
Enter Code: *