Download Now

The Biggest Loser: The Workout New Year, New You

The Biggest Loser: The Workout New Year, New You
DVD5 in ISO-image | English | VOB | 720 x 576 | MPEG2 ~4220 Kbps | 25 fps
AC-3 | 192 kbps | 48.0 KHz | 2 channel | Run Time: 104 minutes | 4.12 GB
Genre: Video Training / Fitness

Just like the contestants on ITV1's hit show, you too can rev up your fat-burning furnace and experience dramatic weight. Join The Biggest Loser trainers, Richard and Angie, and show contestant winners and finalists for a 6-8 week programme that beats the bulge one intensity level at a time.
New You offers a series of bitesize powerful workouts that challenge every muscle with dynamic moves designed to get rid of those unwanted pounds forever. No fads, no frills - just the help you need to take control and reach your goal.

General
Complete name : Floor-Barre Series 3_02.avi
Format : AVI
Format/Info : Audio Video Interleave
File size : 416 MiB
Duration : 34mn 55s
Overall bit rate : 1 665 Kbps
Movie name : F
Writing application : V
Copyright : O

Video
ID : 0
Format : MPEG-4 Visual
Format profile : Advanced [email protected]
Format settings, BVOP : 1
Format settings, QPel : No
Format settings, GMC : No warppoints
Format settings, Matrix : Custom
Codec ID : XVID
Codec ID/Hint : XviD
Duration : 34mn 55s
Bit rate : 1 461 Kbps
Width : 640 pixels
Height : 480 pixels
Display aspect ratio : 4:3
Frame rate : 29.970 fps
Color space : YUV
Chroma subsampling : 4:2:0
Bit depth : 8 bits
Scan type : Progressive
Compression mode : Lossy
Bits/(Pixel*Frame) : 0.159
Stream size : 365 MiB (88%)
Writing library : XviD 73

Audio
ID : 1
Format : AC-3
Format/Info : Audio Coding 3
Mode extension : CM (complete main)
Codec ID : 2000
Duration : 34mn 55s
Bit rate mode : Constant
Bit rate : 192 Kbps
Channel(s) : 2 channels
Channel positions : Front: L R
Sampling rate : 48.0 KHz
Bit depth : 16 bits
Compression mode : Lossy
Stream size : 48.0 MiB (12%)
Alignment : Split accross interleaves
Interleave, duration : 33 ms (1.00 video frame)
Interleave, preload duration : 500 ms

Screenshots

The Biggest Loser: The Workout New Year, New You

The Biggest Loser: The Workout New Year, New You

The Biggest Loser: The Workout New Year, New You

The Biggest Loser: The Workout New Year, New You

The Biggest Loser: The Workout New Year, New You


Buy Premium Account To Get Resumable Support & Max Speed

The Biggest Loser: The Workout New Year, New You

Links are Interchangeable - No Password - Single Extraction
Direct Download

Tags: Biggest, Workout

Comments
Name:*
E-Mail:*
Add Comments:
Enter Code: *