Download Now

Quick Licks: Synyster Gates - Shred metal Key: D minor

Quick Licks: Synyster Gates - Shred metal Key: D minor
DVDRip | English | MP4 | 1024 x 576 | AVC ~1500 kbps | 25 fps
AAC | 160 Kbps | 48.0 KHz | 2 channels | 01:34:20 | 739.9 MB
Genre: eLearning Video / Guitar lesson (2014)

"Learn shred metal licks in the style of Avenged Sevenfolds lead guitarist Synyster Gates. Also includes a metal guitar jam track Each Quick Licks DVD includes an arsenal of licks in the style of your chosen artist to add to your repertoire, plus backing tracks to practice your new licks and techniques."

General
Complete name : ll_qlsynystergates_2.mp4
Format : MPEG-4
Format profile : Base Media
Codec ID : isom
File size : 130 MiB
Duration : 10mn 54s
Overall bit rate mode : Variable
Overall bit rate : 1 663 Kbps
Encoded date : UTC 2014-04-27 17:03:17
Tagged date : UTC 2014-04-27 17:03:17

Video
ID : 1
Format : AVC
Format/Info : Advanced Video Codec
Format profile : [email protected]
Format settings, CABAC : Yes
Format settings, ReFrames : 5 frames
Codec ID : avc1
Codec ID/Info : Advanced Video Coding
Duration : 10mn 54s
Bit rate : 1 500 Kbps
Maximum bit rate : 2 585 Kbps
Width : 1 024 pixels
Height : 576 pixels
Display aspect ratio : 16:9
Frame rate mode : Constant
Frame rate : 25.000 fps
Color space : YUV
Chroma subsampling : 4:2:0
Bit depth : 8 bits
Scan type : Progressive
Bits/(Pixel*Frame) : 0.102
Stream size : 117 MiB (90%)
Writing library : x264 core 142 r2409kMod d6b4e63
Encoding settings : cabac=1 / ref=5 / deblock=1:0:0 / analyse=0x3:0x113 / me=umh / subme=8 / psy=1 / fade_compensate=0.00 / psy_rd=1.00:0.00 / mixed_ref=1 / me_range=16 / chroma_me=1 / trellis=1 / 8x8dct=1 / cqm=0 / deadzone=21,11 / fast_pskip=1 / chroma_qp_offset=-2 / threads=1 / lookahead_threads=1 / sliced_threads=0 / nr=0 / decimate=1 / interlaced=0 / bluray_compat=0 / constrained_intra=0 / fgo=0 / bframes=3 / b_pyramid=2 / b_adapt=2 / b_bias=0 / direct=3 / weightb=1 / open_gop=0 / weightp=2 / keyint=250 / keyint_min=25 / scenecut=40 / intra_refresh=0 / rc_lookahead=50 / rc=2pass / mbtree=1 / bitrate=1500 / ratetol=1.0 / qcomp=0.60 / qpmin=0 / qpmax=69 / qpstep=4 / cplxblur=20.0 / qblur=0.5 / ip_ratio=1.40 / aq=1:1.00
Encoded date : UTC 2014-04-27 17:03:17
Tagged date : UTC 2014-04-27 17:03:18

Audio
ID : 2
Format : AAC
Format/Info : Advanced Audio Codec
Format profile : LC
Codec ID : 40
Duration : 10mn 54s
Bit rate mode : Variable
Bit rate : 160 Kbps
Maximum bit rate : 181 Kbps
Channel(s) : 2 channels
Channel positions : Front: L R
Sampling rate : 48.0 KHz
Compression mode : Lossy
Stream size : 12.5 MiB (10%)
Encoded date : UTC 2014-04-27 16:45:08
Tagged date : UTC 2014-04-27 17:03:18

Screenshots

Quick Licks: Synyster Gates - Shred metal Key: D minor

Quick Licks: Synyster Gates - Shred metal Key: D minor

Quick Licks: Synyster Gates - Shred metal Key: D minor

For more, Visit my
no mirrors please, Follow The Rules

Quick Licks: Synyster Gates - Shred metal Key: D minor

download


Download Below:
----------------------------------------------
Recommend Purchase Premium Account

----------------------------------------------


Direct Download

Tags: Synyster

Comments
Name:*
E-Mail:*
Add Comments:
Enter Code: *