Download Now

Hal Leonard: Guitar Play Along Volume 28 - Blues Rock (2015)

Hal Leonard: Guitar Play Along Volume 28 - Blues Rock
DVDRip | English | AVI | 856 x 480 | XviD~1020 kbps | 24 fps
MP3 | 128 Kbps | 44.1 KHz | 2 channels | 02:16:00 | 1.09 GB
Genre: eLearning Video / Guitar lesson (2015)

"The Guitar Play-Along DVD series lets you hear and see how to play songs like never before. Just watch, listen and learn! Each song starts with a lesson from a professional guitar teacher. Then, the teacher performs the complete song along with professionally recorded backing tracks. You can choose to turn the guitar off if you want to play along, or leave the guitar in the mix to hear how it should sound. You can also choose from three viewing options: fret hand with tab, wide view with tab, pick & fret hands close-up. Each DVD includes great songs that all guitarists will want to know!"

Includes: Come On (Part 1) * Crossfire * Damn Right, I've Got the Blues * Day of the Eagle * I Can't Quit You Baby * Key to the Highway * Statesboro Blues * Tube Snake Boogie. 2 hrs., 16 min.

General
Complete name : HLGPABR28 - 03 - Damn Right, I've Got the Blues - Player's View w_Pick Hand Close Up.avi
Format : AVI
Format/Info : Audio Video Interleave
File size : 37.9 MiB
Duration : 4mn 33s
Overall bit rate : 1 160 Kbps
Writing application : MEncoder SVN-r33883(20110719-gcc4.5.2)
Writing library : MPlayer

Video
ID : 0
Format : MPEG-4 Visual
Format profile : Advanced [email protected]
Format settings, BVOP : 2
Format settings, QPel : No
Format settings, GMC : No warppoints
Format settings, Matrix : Default (H.263)
Codec ID : XVID
Codec ID/Hint : XviD
Duration : 4mn 33s
Bit rate : 1 020 Kbps
Width : 856 pixels
Height : 480 pixels
Display aspect ratio : 16:9
Frame rate : 24.000 fps
Color space : YUV
Chroma subsampling : 4:2:0
Bit depth : 8 bits
Scan type : Progressive
Compression mode : Lossy
Bits/(Pixel*Frame) : 0.103
Stream size : 33.3 MiB (88%)
Writing library : XviD 1.2.1 (UTC 2008-12-04)

Audio
ID : 1
Format : MPEG Audio
Format version : Version 1
Format profile : Layer 3
Mode : Joint stereo
Mode extension : MS Stereo
Codec ID : 55
Codec ID/Hint : MP3
Duration : 4mn 33s
Bit rate mode : Constant
Bit rate : 128 Kbps
Channel(s) : 2 channels
Sampling rate : 44.1 KHz
Compression mode : Lossy
Delay relative to video : 42ms
Stream size : 4.18 MiB (11%)
Alignment : Aligned on interleaves
Interleave, duration : 26 ms (0.63 video frame)
Interleave, preload duration : 522 ms
Writing library : LAME3.98.4

Screenshots

Hal Leonard: Guitar Play Along Volume 28 - Blues Rock (2015)

Hal Leonard: Guitar Play Along Volume 28 - Blues Rock (2015)

Hal Leonard: Guitar Play Along Volume 28 - Blues Rock (2015)

Hal Leonard: Guitar Play Along Volume 28 - Blues Rock (2015)

For more, Visit my
no mirrors please, Follow The Rules

Hal Leonard: Guitar Play Along Volume 28 - Blues Rock (2015)

download


Download Below:
----------------------------------------------
Recommend Purchase Premium Account

----------------------------------------------


Direct Download

Tags: Leonard, Guitar

Comments
Name:*
E-Mail:*
Add Comments:
Enter Code: *