Download Now

Truefire: Acoustic Groove by Adam Miller (2015)

Truefire: Acoustic Groove by Adam Miller (2015)
(.mp4) in an interactive shell | English | 864 x 486 | AVC ~768 kbps | 29.970 fps
AAC | 152 Kbps | 44.1 KHz | 2 channels | 02:44:00 | 1.16 GB
Genre: eLearning Video / Guitar lesson

"Modern singer-songwriters like John Mayer, Dave Mathews and Jason Mraz (and there are many others) elevated the art of guitar accompaniment to a whole new level. You hear fresh chord voicings, exciting rhythm patterns, bass lines, percussive elements, riffs and other melodic elements supporting their vocals - and they do it all with just six strings and a pick. That's "acoustic groove" at its very best."

You don't need to be a ‘fingerstyle' player to take advantage of the guitar's polyphonic wonders. Players who are more comfortable using a pick can also make their guitar accompaniments sound like a whole band is playing and that's what Adam Miller's Acoustic Groove is designed to do.

"Acoustic Groove is designed to show you how to translate the sound and feel of an entire band on to your 6 strings. There is a strong focus on bass lines and how to incorporate these into your chords. You'll learn about how chords work and scales to help you develop interesting bass lines to compliment the style. There are a huge variety of techniques for both you picking and fretting hand - and the majority of this is shown using a pick!"

In the first section, Adam demonstrates 14 key concepts and techniques to help you develop a modern polyphonic approach for guitar accompaniment: Simplified Chord Voicings Left-Hand Muting Chords, Thinking Like A Drummer, Muting With Single Notes, Right Hand Picking Technique, Left Hand Tips & Tricks, Fingerstyle Techniques, Simple Bass Lines, 1 to 5 Bass Lines, Scales To Use For Bass Lines, Walking Bass, Funky Bass, Straight 8 Bass Lines and Gear & Tone.

You'll put all those new skills to work across the 5 Performance Studies that Adam steps you through in the second section: Empty Loungeroom, Groovin' Texas Blues, Lord Mayor, The Sleazy Song and Shifting Straight Units.

All of the key demonstrations, performances and examples are tabbed and notated for your practice, reference and study purposes. You'll also get Guitar Pro files so that you can loop and/or slow any section down as you work through the lessons.

Grab your acoustic guitar, favorite pick and get your groove on!


Truefire: Acoustic Groove by Adam Miller (2015)

More Info:

Complete name : 10.mp4
Format : MPEG-4
Format profile : Base Media
Codec ID : isom
File size : 47.7 MiB
Duration : 7mn 4s
Overall bit rate mode : Variable
Overall bit rate : 943 Kbps
Writing application : Lavf55.19.104

ID : 1
Format : AVC
Format/Info : Advanced Video Codec
Format profile : [email protected]
Format settings, CABAC : Yes
Format settings, ReFrames : 4 frames
Codec ID : avc1
Codec ID/Info : Advanced Video Coding
Duration : 7mn 4s
Bit rate : 768 Kbps
Width : 864 pixels
Height : 486 pixels
Display aspect ratio : 16:9
Frame rate mode : Constant
Frame rate : 29.970 fps
Color space : YUV
Chroma subsampling : 4:2:0
Bit depth : 8 bits
Scan type : Progressive
Bits/(Pixel*Frame) : 0.061
Stream size : 39.6 MiB (83%)
Writing library : x264 core 119
Encoding settings : cabac=1 / ref=1 / deblock=1:0:0 / analyse=0x1:0x1 / me=dia / subme=1 / psy=1 / psy_rd=1.00:0.00 / mixed_ref=0 / me_range=16 / chroma_me=1 / trellis=0 / 8x8dct=0 / cqm=0 / deadzone=21,11 / fast_pskip=1 / chroma_qp_offset=0 / threads=4 / sliced_threads=0 / nr=0 / decimate=1 / interlaced=0 / bluray_compat=0 / constrained_intra=0 / bframes=3 / b_pyramid=2 / b_adapt=1 / b_bias=0 / direct=1 / weightb=1 / open_gop=0 / weightp=1 / keyint=250 / keyint_min=25 / scenecut=40 / intra_refresh=0 / rc=abr / mbtree=0 / bitrate=768 / ratetol=1.0 / qcomp=0.60 / qpmin=0 / qpmax=69 / qpstep=4 / ip_ratio=1.40 / pb_ratio=1.30 / aq=1:1.00

ID : 2
Format : AAC
Format/Info : Advanced Audio Codec
Format profile : LC
Codec ID : 40
Duration : 7mn 4s
Duration_LastFrame : -1ms
Bit rate mode : Variable
Bit rate : 152 Kbps
Maximum bit rate : 192 Kbps
Channel(s) : 2 channels
Channel positions : Front: L R
Sampling rate : 44.1 KHz
Compression mode : Lossy
Stream size : 7.68 MiB (16%)


Truefire: Acoustic Groove by Adam Miller (2015)

Truefire: Acoustic Groove by Adam Miller (2015)

For more, Visit my
no mirrors please, Follow The Rules

Truefire: Acoustic Groove by Adam Miller (2015)

Download Below:
Recommend Purchase Premium Account






Direct Download

Tags: Truefire, Acoustic, Groove, Miller

Add Comments:
Enter Code: *