Download Now

Newborns: Props and Posing (2014)

Newborns: Props and Posing (2014)
MP4 | AVC 1545kbps | English | 1280x720 | 23.97ps | 2h 47mins | AAC stereo 125kbps | 1.91 GB
Genre: Video Training

Newborn photography is a rich experience for both photographers and new parents. In Newborns: Props and Posing, Ana Brandt will share some of her creative insights for capturing that magic with the propping and posing techniques she uses in her own successful newborn and family photography studio.
Format : MPEG-4
Format profile : Base Media / Version 2
Codec ID : mp42
File size : 985 MiB
Duration : 1h 22mn
Overall bit rate mode : Variable
Overall bit rate : 1 674 Kbps
Encoded date : UTC 2014-09-20 23:12:00
Tagged date : UTC 2014-09-20 23:12:29
©TIM : 00:00:00:00
©TSC : 24000
©TSZ : 1001
Video #1
ID : 1
Format : AVC
Format/Info : Advanced Video Codec
Format profile : [email protected]
Format settings, CABAC : Yes
Format settings, ReFrames : 3 frames
Codec ID : avc1
Codec ID/Info : Advanced Video Coding
Duration : 1h 22mn
Bit rate mode : Variable
Bit rate : 1 545 Kbps
Maximum bit rate : 3 000 Kbps
Width : 1 280 pixels
Height : 720 pixels
Display aspect ratio : 16:9
Frame rate mode : Constant
Frame rate : 23.976 fps
Standard : NTSC
Color space : YUV
Chroma subsampling : 4:2:0
Bit depth : 8 bits
Scan type : Progressive
Bits/(Pixel*Frame) : 0.070
Stream size : 909 MiB (92%)
Language : English
Encoded date : UTC 2014-09-20 23:12:00
Tagged date : UTC 2014-09-20 23:12:00
Audio #2
ID : 2
Format : AAC
Format/Info : Advanced Audio Codec
Format profile : LC
Codec ID : 40
Duration : 1h 22mn
Source duration : 1h 22mn
Bit rate mode : Variable
Bit rate : 125 Kbps
Maximum bit rate : 201 Kbps
Channel(s) : 2 channels
Channel positions : Front: L R
Sampling rate : 48.0 KHz
Compression mode : Lossy
Stream size : 73.8 MiB (7%)
Source stream size : 73.8 MiB (7%)
Language : English
Encoded date : UTC 2014-09-20 23:12:00
Tagged date : UTC 2014-09-20 23:12:00

Newborns: Props and Posing (2014)

Newborns: Props and Posing (2014)

Newborns: Props and Posing (2014)

No mirrors please


Download Below:
----------------------------------------------
Recommend Purchase Premium Account

----------------------------------------------

RapidGator:
http://rapidgator.net/file/4918106d0bfe59d59d5edcd638511b87/2mks5.Newborns.Props.and.Posing.2014.part1.rar.html
http://rapidgator.net/file/b3999c77a6be6daf477b9769ff290ee5/2mks5.Newborns.Props.and.Posing.2014.part2.rar.html
http://rapidgator.net/file/93a92f20acde792647af94b2e8e0c9a3/2mks5.Newborns.Props.and.Posing.2014.part3.rar.html
http://rapidgator.net/file/ea74421b55a852de71fa8355ec99682a/2mks5.Newborns.Props.and.Posing.2014.part4.rar.html
http://rapidgator.net/file/cd33cabe0dbbb7c9fee1111aa5c0c2ec/2mks5.Newborns.Props.and.Posing.2014.part5.rar.html
http://rapidgator.net/file/416849d610f641ba0585eacab0e930e6/2mks5.Newborns.Props.and.Posing.2014.part6.rar.html
http://rapidgator.net/file/95740f42a57c132ed5f26c7fa8bcc36d/2mks5.Newborns.Props.and.Posing.2014.part7.rar.html

Uploaded:
http://uploaded.net/file/2pby05ea/2mks5.Newborns.Props.and.Posing.2014.part1.rar
http://uploaded.net/file/q4nhrzq2/2mks5.Newborns.Props.and.Posing.2014.part2.rar
http://uploaded.net/file/uw0smbpv/2mks5.Newborns.Props.and.Posing.2014.part3.rar
http://uploaded.net/file/qfvek7ij/2mks5.Newborns.Props.and.Posing.2014.part4.rar
http://uploaded.net/file/ke28glr3/2mks5.Newborns.Props.and.Posing.2014.part5.rar
http://uploaded.net/file/33gfxbp7/2mks5.Newborns.Props.and.Posing.2014.part6.rar
http://uploaded.net/file/5k7d474w/2mks5.Newborns.Props.and.Posing.2014.part7.rar

TurboBit:
http://turbobit.net/l1zhr3g7at0u/2mks5.Newborns.Props.and.Posing.2014.part1.rar.html
http://turbobit.net/jl5k702cg8na/2mks5.Newborns.Props.and.Posing.2014.part2.rar.html
http://turbobit.net/c7idobwuxhtz/2mks5.Newborns.Props.and.Posing.2014.part3.rar.html
http://turbobit.net/2av5kvts4clm/2mks5.Newborns.Props.and.Posing.2014.part4.rar.html
http://turbobit.net/yy20vabd36b2/2mks5.Newborns.Props.and.Posing.2014.part5.rar.html
http://turbobit.net/uwyglrgsr8aj/2mks5.Newborns.Props.and.Posing.2014.part6.rar.html
http://turbobit.net/uxlufydv3mgm/2mks5.Newborns.Props.and.Posing.2014.part7.rar.html

UploadAble:
http://www.uploadable.ch/file/me5fhFqPfSPP/2mks5.Newborns.Props.and.Posing.2014.part1.rar
http://www.uploadable.ch/file/rNtB6xPfuYs7/2mks5.Newborns.Props.and.Posing.2014.part2.rar
http://www.uploadable.ch/file/fB6xKvrDznKz/2mks5.Newborns.Props.and.Posing.2014.part3.rar
http://www.uploadable.ch/file/tmBWFKEAhm77/2mks5.Newborns.Props.and.Posing.2014.part4.rar
http://www.uploadable.ch/file/beVZyke68U7z/2mks5.Newborns.Props.and.Posing.2014.part5.rar
http://www.uploadable.ch/file/mCEvZb2geXHC/2mks5.Newborns.Props.and.Posing.2014.part6.rar
http://www.uploadable.ch/file/u6VwbhuBUj9y/2mks5.Newborns.Props.and.Posing.2014.part7.rar

Direct Download

Tags: Newborns, Posing

Comments
Name:*
E-Mail:*
Add Comments:
Enter Code: *