Download Now

http://i.imm.io/iz4o.jpeg

Kelby Training - Mastering HDR in Photoshop CS5
English | FLV | VP6 1000kbps | 852x480 | 30fps | 2h 07mins | MP3 stereo 128kbps | 961 MB
Genre: Video Training

HDR is one of the hottest trends in digital photography. And now Photoshop CS5 has an entirely new set of features aimed at getting you great HDR photos right out of Photoshop (with no 3rd party plug-ins). In this course, HDR Pro Matt Kloskowski shows you how to put those new features to work to create some killer HDR photos.

01 Introduction 1:55
02 What is HDR? 3:32
03 Shooting HDR Photos 5:11
04 How Many Photos Do You Really Need? 2:51
05 Photoshop HDR Pro Quickstart 7:41
06 Edge Glow Settings 6:43
07 Tone and Detail Settings 5:23
08 Color and Curves 3:43
09 The Deghosting Controls 4:00
10 Post Processing using Adobe Camera Raw 6:10
11 Finishing in Photoshop 5:59
12 HDR Settings for the Surreal Fantasy Style 11:27
13 HDR Night Photos 13:06
14 HDR with a Moving Subject 11:14
15 Pseudo HDR From Just One Photo 10:24
16 HDR From Start to Finish with Lightroom 13:29
17 HDR From Start to Finish with Bridge 13:52
18 Conclusion 0:45

Mediainfo:

Format : Flash Video
File size : 76.9 MiB
Duration : 13mn 51s
Overall bit rate : 775 Kbps
Encoded date : Fri Apr 9 16:27:08 2010
Writing application : Paul Wilder / Sorenson Squeeze / Sorenson Squeeze
Video
Format : VP6
Duration : 13mn 51s
Bit rate : 1 000 Kbps
Width : 852 pixels
Height : 480 pixels
Display aspect ratio : 16:9
Frame rate : 30.000 fps
Bits/(Pixel*Frame) : 0.082
Stream size : 99.1 MiB
Audio
Format : MPEG Audio
Format version : Version 1
Format profile : Layer 3
Duration : 13mn 51s
Bit rate mode : Constant
Bit rate : 128 Kbps
Channel(s) : 2 channels
Sampling rate : 44.1 KHz
Resolution : 16 bits
Stream size : 12.7 MiB (17%)

http://i.imm.io/iz4q.jpeg


Buy Premium Before Download To Get Resumable Support & Max Speed

Extabit:
http://extabit.com/file/2dvfk5pqnd630/Kelby.Training..Mastering.HDR.in.Photoshop.CS5.New.Links.part01.rar
http://extabit.com/file/2dvfk5pqo033w/Kelby.Training..Mastering.HDR.in.Photoshop.CS5.New.Links.part02.rar
http://extabit.com/file/2dvfk5pqndci4/Kelby.Training..Mastering.HDR.in.Photoshop.CS5.New.Links.part03.rar
http://extabit.com/file/2dvfk5pqne1rg/Kelby.Training..Mastering.HDR.in.Photoshop.CS5.New.Links.part04.rar
http://extabit.com/file/2dvfk5pqnd2x8/Kelby.Training..Mastering.HDR.in.Photoshop.CS5.New.Links.part05.rar
http://extabit.com/file/2dvfk5pqnd9fg/Kelby.Training..Mastering.HDR.in.Photoshop.CS5.New.Links.part06.rar
http://extabit.com/file/2dvfk5pqncwos/Kelby.Training..Mastering.HDR.in.Photoshop.CS5.New.Links.part07.rar
http://extabit.com/file/2dvfk5pqnctj0/Kelby.Training..Mastering.HDR.in.Photoshop.CS5.New.Links.part08.rar
http://extabit.com/file/2dvfk5pqndp70/Kelby.Training..Mastering.HDR.in.Photoshop.CS5.New.Links.part09.rar
http://extabit.com/file/2dvfk5pqncwr0/Kelby.Training..Mastering.HDR.in.Photoshop.CS5.New.Links.part10.rar

Letitbit:
http://letitbit.net/download/16776.15e482b7a5310f3c402753820cec/Kelby.Training..Mastering.HDR.in.Photoshop.CS5.New.Links.part01.rar.html
http://letitbit.net/download/40396.4fb4d59d692beda1fedadae9ef45/Kelby.Training..Mastering.HDR.in.Photoshop.CS5.New.Links.part02.rar.html
http://letitbit.net/download/51868.56eaac448136701328f6f97a728a/Kelby.Training..Mastering.HDR.in.Photoshop.CS5.New.Links.part03.rar.html
http://letitbit.net/download/01309.04d1d18513316c129dda8e4502fb/Kelby.Training..Mastering.HDR.in.Photoshop.CS5.New.Links.part04.rar.html
http://letitbit.net/download/97560.95a9b98553bdd3941728a7f13b1c/Kelby.Training..Mastering.HDR.in.Photoshop.CS5.New.Links.part05.rar.html
http://letitbit.net/download/97837.9146c2e2d76916021ebe5d25e389/Kelby.Training..Mastering.HDR.in.Photoshop.CS5.New.Links.part06.rar.html
http://letitbit.net/download/27001.24e14077fc2cb2c37210d192cacb/Kelby.Training..Mastering.HDR.in.Photoshop.CS5.New.Links.part07.rar.html
http://letitbit.net/download/86822.83fc40bdfb0a4549f39ad85f0ad8/Kelby.Training..Mastering.HDR.in.Photoshop.CS5.New.Links.part08.rar.html
http://letitbit.net/download/32993.3fadf9231bb8dac4473c436d61fd/Kelby.Training..Mastering.HDR.in.Photoshop.CS5.New.Links.part09.rar.html
http://letitbit.net/download/72968.79c4cbbcf7d7b2ae837d430d3c2a/Kelby.Training..Mastering.HDR.in.Photoshop.CS5.New.Links.part10.rar.html


Links are Interchangeable - No Password - Single Extraction
Direct Download

Tags: Photoshop, Training, Mastering

Comments
Name:*
E-Mail:*
Add Comments:
Enter Code: *